533 lines
5.5 KiB
Plaintext
533 lines
5.5 KiB
Plaintext
//TJADB Project
|
|
TITLE:R.Y.U.S.E.I.
|
|
TITLEJA:R.Y.U.S.E.I.
|
|
SUBTITLE:--Sandaime J SOUL BROTHERS (EXILE TRIBE)/TCK 2014
|
|
SUBTITLEJA:
|
|
BPM:128
|
|
WAVE:R.Y.U.S.E.I..ogg
|
|
OFFSET:-2.319
|
|
DEMOSTART:74.463
|
|
|
|
//Shinuchi: 5080/3600/2810/2390
|
|
|
|
COURSE:Oni
|
|
LEVEL:8
|
|
BALLOON:
|
|
SCOREINIT:760,2670
|
|
SCOREDIFF:220
|
|
|
|
//WiiU3 Score: 780/218
|
|
|
|
#START
|
|
00222020,
|
|
0,
|
|
00222022,
|
|
000000000000000000200222,
|
|
|
|
22222020,
|
|
0,
|
|
222200200200200111200000, //7
|
|
|
|
#GOGOSTART
|
|
3002100010021000,
|
|
1002102010021000,
|
|
1002100010021000,
|
|
1002102012021000,
|
|
|
|
1020122010201220,
|
|
1020122010201220,
|
|
1222122212221000,
|
|
600000000000000000000000000000000008000000000000, //15
|
|
#GOGOEND
|
|
|
|
#SCROLL 0.5
|
|
30220220,
|
|
00022022,
|
|
10210210,
|
|
00001120,
|
|
|
|
10220220,
|
|
0022,
|
|
0
|
|
#SCROLL 4
|
|
600,
|
|
000000000008000000000000
|
|
#SCROLL 0.75
|
|
200000200000200000000000, //23
|
|
|
|
10010020,
|
|
10120020,
|
|
10010020,
|
|
10010022,
|
|
|
|
10010020,
|
|
10010020,
|
|
500000000000000000000000000000000008000000000000,
|
|
600000000000000000000000000000000008000000000000, //31
|
|
|
|
#SCROLL 1
|
|
11221021,
|
|
01221021,
|
|
30230230,
|
|
2022022020202220,
|
|
|
|
11221021,
|
|
1010202010102210,
|
|
1020122012021020,
|
|
100000200200200200200200200000101010200000000000, //39
|
|
|
|
#GOGOSTART
|
|
3002103021003020,
|
|
32332333,
|
|
00
|
|
#SCROLL 3
|
|
4040
|
|
#SCROLL 1
|
|
11,
|
|
#BARLINEOFF
|
|
0
|
|
#SCROLL 3
|
|
44
|
|
#SCROLL 1
|
|
0, //43
|
|
|
|
#BARLINEON
|
|
3002103021003020,
|
|
32332333,
|
|
00
|
|
#SCROLL 3
|
|
4040
|
|
#SCROLL 1
|
|
11,
|
|
#BARLINEOFF
|
|
0
|
|
#SCROLL 3
|
|
44
|
|
#SCROLL 1
|
|
0, //47
|
|
|
|
#BARLINEON
|
|
3000201011012010,
|
|
1001201011012010,
|
|
10
|
|
#SCROLL 3
|
|
4040
|
|
#SCROLL 1
|
|
11,
|
|
#BARLINEOFF
|
|
0
|
|
#SCROLL 3
|
|
44
|
|
#SCROLL 1
|
|
0, //51
|
|
|
|
#BARLINEON
|
|
2022202202022020,
|
|
2220202202022020,
|
|
00
|
|
#SCROLL 3
|
|
4040
|
|
#SCROLL 1
|
|
22,
|
|
#BARLINEOFF
|
|
0
|
|
#SCROLL 3
|
|
44
|
|
#SCROLL 1
|
|
0, //55
|
|
#GOGOEND
|
|
|
|
#BARLINEON
|
|
1000102012021020,
|
|
1010201011012010,
|
|
1000102012021020,
|
|
1010201011012000,
|
|
|
|
300000000200100000200000100200000200100000202020,
|
|
2010102012021020,
|
|
1002102012021020,
|
|
222200200200200222100000, //63
|
|
|
|
3,
|
|
#BARLINEOFF
|
|
0,
|
|
0,
|
|
0, //67
|
|
#END
|
|
|
|
|
|
COURSE:Hard
|
|
LEVEL:7
|
|
BALLOON:
|
|
SCOREINIT:740,3370
|
|
SCOREDIFF:220
|
|
|
|
#START
|
|
00222020,
|
|
0,
|
|
00222020,
|
|
0000000000002022,
|
|
|
|
22222020,
|
|
0,
|
|
2220202020012000,//7
|
|
|
|
#GOGOSTART
|
|
3000300030011010,
|
|
3000300030011000,
|
|
3000300030011010,
|
|
3000300030011000,
|
|
|
|
1000102010201110,
|
|
1000102010201110,
|
|
10111110,
|
|
600000000000000000000000000000000008000000000000,//15
|
|
#GOGOEND
|
|
|
|
10220220,
|
|
00022022,
|
|
10210210,
|
|
00002220,
|
|
|
|
10220220,
|
|
0022,
|
|
0
|
|
#SCROLL 3
|
|
600,
|
|
000000000008000000000000
|
|
#SCROLL 1
|
|
000000000000000000000000, //23
|
|
|
|
10010020,
|
|
10220020,
|
|
10010020,
|
|
10010022,
|
|
|
|
10010020,
|
|
10010020,
|
|
500000000000000000000000000000000008000000000000,
|
|
600000000000000000000000000000000008000000000000, //31
|
|
|
|
10221020,
|
|
10221020,
|
|
30030030,
|
|
2022202020202000,
|
|
|
|
12221020,
|
|
12221020,
|
|
10121012,
|
|
1022202020012000, //39
|
|
|
|
#GOGOSTART
|
|
30230230,
|
|
30330333,
|
|
00
|
|
#SCROLL 3
|
|
4040
|
|
#SCROLL 1
|
|
11,
|
|
#BARLINEOFF
|
|
0
|
|
#SCROLL 3
|
|
44
|
|
#SCROLL 1
|
|
0, //43
|
|
|
|
#BARLINEON
|
|
30230230,
|
|
30330333,
|
|
00
|
|
#SCROLL 3
|
|
4040
|
|
#SCROLL 1
|
|
11,
|
|
#BARLINEOFF
|
|
0
|
|
#SCROLL 3
|
|
44
|
|
#SCROLL 1
|
|
0, //47
|
|
|
|
#BARLINEON
|
|
30230230,
|
|
23023030,
|
|
00
|
|
#SCROLL 3
|
|
4040
|
|
#SCROLL 1
|
|
11,
|
|
#BARLINEOFF
|
|
0
|
|
#SCROLL 3
|
|
44
|
|
#SCROLL 1
|
|
0, //51
|
|
|
|
#BARLINEON
|
|
2020202202022000,
|
|
2020202202022000,
|
|
00
|
|
#SCROLL 3
|
|
4040
|
|
#SCROLL 1
|
|
22,
|
|
#BARLINEOFF
|
|
0
|
|
#SCROLL 3
|
|
44
|
|
#SCROLL 1
|
|
0, //55
|
|
#GOGOEND
|
|
|
|
#BARLINEON
|
|
1000102011011020,
|
|
1000102011011000,
|
|
1000102011011020,
|
|
1000102011012000,
|
|
|
|
3000102011011022,
|
|
2020102011011000,
|
|
1000102011011020,
|
|
2220202020002000,
|
|
|
|
3,
|
|
#BARLINEOFF
|
|
0,
|
|
0,
|
|
0, //67
|
|
#END
|
|
|
|
|
|
COURSE:Normal
|
|
LEVEL:5
|
|
BALLOON:
|
|
SCOREINIT:670,5260
|
|
SCOREDIFF:220
|
|
|
|
//WiiU3 Score: 660/220
|
|
|
|
#START
|
|
00222020,
|
|
0,
|
|
00222020,
|
|
0,
|
|
|
|
22202020,
|
|
0,
|
|
22202020, //7
|
|
|
|
#GOGOSTART
|
|
30303011,
|
|
3330,
|
|
30303011,
|
|
3330,
|
|
|
|
30303011,
|
|
3330,
|
|
3333,
|
|
600000000000000000000000000000000008000000000000, //15
|
|
#GOGOEND
|
|
|
|
1,
|
|
0011,
|
|
10110110,
|
|
0011,
|
|
|
|
10110110,
|
|
0011,
|
|
0
|
|
#SCROLL 2
|
|
600,
|
|
000000000008000000000000
|
|
#SCROLL 1
|
|
000000000000000000000000, //23
|
|
|
|
10010010,
|
|
10010000,
|
|
10010010,
|
|
10010000,
|
|
|
|
10010010,
|
|
10010000,
|
|
500000000000000000000000000000000008000000000000,
|
|
600000000000000000000000000000000008000000000000, //31
|
|
|
|
10111000,
|
|
10111000,
|
|
30030060,
|
|
000000000000000000000008000000000000000000000000,
|
|
|
|
10111010,
|
|
10111010,
|
|
33,
|
|
600000000000000000000000000000000008000000000000, //39
|
|
|
|
#GOGOSTART
|
|
30030030,
|
|
30330330,
|
|
0
|
|
#SCROLL 2
|
|
44
|
|
#SCROLL 1
|
|
0,
|
|
0
|
|
#SCROLL 2
|
|
44
|
|
#SCROLL 1
|
|
0, //43
|
|
|
|
30030030,
|
|
30330330,
|
|
0
|
|
#SCROLL 2
|
|
44
|
|
#SCROLL 1
|
|
0,
|
|
0
|
|
#SCROLL 2
|
|
44
|
|
#SCROLL 1
|
|
0, //47
|
|
|
|
30030030,
|
|
33033030,
|
|
0
|
|
#SCROLL 2
|
|
44
|
|
#SCROLL 1
|
|
0,
|
|
0
|
|
#SCROLL 2
|
|
44
|
|
#SCROLL 1
|
|
0, //51
|
|
|
|
30030030,
|
|
33033033,
|
|
0
|
|
#SCROLL 2
|
|
44
|
|
#SCROLL 1
|
|
0,
|
|
0
|
|
#SCROLL 2
|
|
44
|
|
#SCROLL 1
|
|
0,//55
|
|
#GOGOEND
|
|
|
|
10101011,
|
|
10222020,
|
|
10101011,
|
|
10222020,
|
|
|
|
30303011,
|
|
10222020,
|
|
3333,
|
|
22202020,
|
|
|
|
3,
|
|
#BARLINEOFF
|
|
0,
|
|
0,
|
|
0, //67
|
|
#END
|
|
|
|
COURSE:Easy
|
|
LEVEL:3
|
|
BALLOON:
|
|
SCOREINIT:530,7780
|
|
SCOREDIFF:238
|
|
|
|
//WiiU3 Score: 520/238
|
|
|
|
#START
|
|
0222,
|
|
0,
|
|
0222,
|
|
0,
|
|
|
|
0222,
|
|
0,
|
|
0224,//7
|
|
|
|
#GOGOSTART
|
|
33,
|
|
3044,
|
|
33,
|
|
3044,
|
|
|
|
33,
|
|
3044,
|
|
33,
|
|
600000000000000000000000000008000000000000000000,//15
|
|
#GOGOEND
|
|
|
|
1,
|
|
0011,
|
|
1,
|
|
0011,
|
|
|
|
1,
|
|
0011,
|
|
0600,
|
|
000008000000000000000000000000000000000000000000, //23
|
|
|
|
11,
|
|
1100,
|
|
11,
|
|
1100,
|
|
|
|
11,
|
|
1100,
|
|
6,
|
|
000000000000000000000000000008000000000000000000, //31
|
|
|
|
11,
|
|
1110,
|
|
11,
|
|
1,
|
|
|
|
11,
|
|
1110,
|
|
11,
|
|
3, //39
|
|
|
|
#GOGOSTART
|
|
3033,
|
|
3033,
|
|
0440,
|
|
0440,
|
|
|
|
3033,
|
|
3033,
|
|
0440,
|
|
0440, //47
|
|
|
|
3033,
|
|
3033,
|
|
0440,
|
|
0440,
|
|
|
|
3033,
|
|
3033,
|
|
0440,
|
|
0440, //55
|
|
#GOGOEND
|
|
|
|
1011,
|
|
0220,
|
|
1011,
|
|
0220,
|
|
|
|
3033,
|
|
0220,
|
|
3033,
|
|
0222,
|
|
|
|
3,
|
|
#BARLINEOFF
|
|
0,
|
|
0,
|
|
0, //67
|
|
#END |