439 lines
4.2 KiB
Plaintext
439 lines
4.2 KiB
Plaintext
//TJADB Project
|
|
TITLE:Blue Rose Ruin
|
|
TITLEJA:Blue Rose Ruin
|
|
SUBTITLE:--Tatsh a.k.a. Zeami
|
|
BPM:185
|
|
WAVE:Blue Rose Ruin.ogg
|
|
OFFSET:-1.623
|
|
DEMOSTART:32.758
|
|
|
|
COURSE:Oni
|
|
LEVEL:8
|
|
BALLOON:15
|
|
SCOREINIT:400
|
|
SCOREDIFF:90
|
|
|
|
|
|
#START
|
|
|
|
|
|
11,
|
|
11,
|
|
11,
|
|
11,
|
|
1111,
|
|
1111,
|
|
11111111,
|
|
1110111011111111,
|
|
1010202011102011,
|
|
1020102010221020,
|
|
1010202011102011,
|
|
1020102010221020,
|
|
1404,
|
|
1404,
|
|
1404,
|
|
1010100000001111,
|
|
1010201020112010,
|
|
1010201020221020,
|
|
1010201020112010,
|
|
2022102010221020,
|
|
1010201020112010,
|
|
1010201020221020,
|
|
1010201020112010,
|
|
2020200011101111,
|
|
1010202011102011,
|
|
1020102010221020,
|
|
1010202011102011,
|
|
1020102012021020,
|
|
1010202011202011,
|
|
1020102010221020,
|
|
1010202011202011,
|
|
1020102012021020,
|
|
1110201110102010,
|
|
2210102210102010,
|
|
1110201110102010,
|
|
2210102210102010,
|
|
1,
|
|
,
|
|
1000100010001000,
|
|
1010101010101010,
|
|
1110111011111110,
|
|
1111111110000000,
|
|
,
|
|
#GOGOSTART
|
|
1120102011201020,
|
|
1120102010221020,
|
|
1120102011201020,
|
|
1022102012021020,
|
|
1120102210201020,
|
|
1120102210201020,
|
|
1112202011122020,
|
|
1120112011221120,
|
|
1120102011201020,
|
|
1120102010221020,
|
|
1120102011201020,
|
|
1022102012021020,
|
|
1120102210201020,
|
|
1120102210201020,
|
|
1010221110102211,
|
|
1010111011111111,
|
|
#GOGOEND
|
|
1010202011102020,
|
|
1021201210202020,
|
|
1010202011102020,
|
|
1021201210212120,
|
|
1010202011102020,
|
|
1021201210202020,
|
|
1111202011112020,
|
|
1111111110210120,
|
|
1110401111104011,
|
|
0110401110404011,
|
|
1110401111104011,
|
|
0110401110404040,
|
|
1120102011201122,
|
|
1120102011121120,
|
|
1120102011201122,
|
|
1120102011121120,
|
|
#GOGOSTART
|
|
1110201110201110,
|
|
2210102210102210,
|
|
1110201110201110,
|
|
2210102210102110,
|
|
1110201110201110,
|
|
2210102210102210,
|
|
1010101011101110,
|
|
1111101111111110,
|
|
#GOGOEND
|
|
30040030,
|
|
04003030,
|
|
30040030,
|
|
30117000,
|
|
00000803,
|
|
|
|
|
|
#END
|
|
|
|
|
|
COURSE:Hard
|
|
LEVEL:8
|
|
BALLOON:25,7,10
|
|
SCOREINIT:500
|
|
SCOREDIFF:120
|
|
|
|
#START
|
|
11,
|
|
11,
|
|
11,
|
|
11,
|
|
1111,
|
|
1111,
|
|
11101110,
|
|
1010101010111000,
|
|
11201021,
|
|
0020002000222020,
|
|
11201021,
|
|
0020002000222020,
|
|
1404,
|
|
1404,
|
|
1404,
|
|
1404,
|
|
11212120,
|
|
1010201020222000,
|
|
11212120,
|
|
2022200020222000,
|
|
11212120,
|
|
1010201020222000,
|
|
11212120,
|
|
2022200020222000,
|
|
11201021,
|
|
0020002000222020,
|
|
11201021,
|
|
0020002000111020,
|
|
11201021,
|
|
0020002000222020,
|
|
11201021,
|
|
0020002000111020,
|
|
11201120,
|
|
21121120,
|
|
11201120,
|
|
21121120,
|
|
3,
|
|
0,
|
|
3333,
|
|
33303330,
|
|
33333333,
|
|
68,
|
|
0,
|
|
#GOGOSTART
|
|
1020102010111000,
|
|
1020102010111000,
|
|
12101210,
|
|
1020102010222000,
|
|
1020102010111000,
|
|
1020102010111000,
|
|
1110100011101000,
|
|
5008,
|
|
1020102010111000,
|
|
1020102010111000,
|
|
12101210,
|
|
1020102010222000,
|
|
1020102010111000,
|
|
1020102010111000,
|
|
1110100011101000,
|
|
5008,
|
|
#GOGOEND
|
|
11221122,
|
|
12221020,
|
|
11221122,
|
|
12221202,
|
|
11221122,
|
|
12221020,
|
|
11201120,
|
|
5008,
|
|
11401140,
|
|
11401440,
|
|
11401140,
|
|
11401440,
|
|
9,
|
|
0,
|
|
8,
|
|
0,
|
|
#GOGOSTART
|
|
11211211,
|
|
2010201000222000,
|
|
11211211,
|
|
2010102000222000,
|
|
11211211,
|
|
2010201000222000,
|
|
1110100011101000,
|
|
7008,
|
|
#GOGOEND
|
|
30030030,
|
|
03004040,
|
|
30030030,
|
|
30117000,
|
|
00000803,
|
|
,
|
|
,
|
|
,
|
|
,
|
|
,
|
|
,
|
|
,
|
|
#END
|
|
|
|
COURSE:Normal
|
|
LEVEL:7
|
|
BALLOON:20,5
|
|
SCOREINIT:540
|
|
SCOREDIFF:130
|
|
|
|
#START
|
|
11,
|
|
11,
|
|
11,
|
|
11,
|
|
1110,
|
|
1110,
|
|
1111,
|
|
11101110,
|
|
10101022,
|
|
02020220,
|
|
10101022,
|
|
02020220,
|
|
1404,
|
|
1404,
|
|
1404,
|
|
1404,
|
|
10201120,
|
|
10201120,
|
|
10201120,
|
|
11102000,
|
|
10201120,
|
|
10201120,
|
|
10201120,
|
|
11102000,
|
|
10101022,
|
|
02020220,
|
|
10101022,
|
|
02020110,
|
|
10101022,
|
|
02020220,
|
|
10101022,
|
|
02020110,
|
|
10201120,
|
|
10201220,
|
|
10201120,
|
|
10201220,
|
|
3,
|
|
0,
|
|
3333,
|
|
33303330,
|
|
33333333,
|
|
68,
|
|
0,
|
|
#GOGOSTART
|
|
10101110,
|
|
10101110,
|
|
11101110,
|
|
1212,
|
|
10201120,
|
|
10201120,
|
|
11201220,
|
|
5008,
|
|
10101110,
|
|
10101110,
|
|
11101110,
|
|
1212,
|
|
10201120,
|
|
10201120,
|
|
11201220,
|
|
5008,
|
|
#GOGOEND
|
|
11102220,
|
|
11102020,
|
|
11102220,
|
|
11111020,
|
|
11102220,
|
|
11102020,
|
|
11201120,
|
|
5008,
|
|
0303,
|
|
0333,
|
|
0303,
|
|
0333,
|
|
7,
|
|
0,
|
|
8,
|
|
0,
|
|
#GOGOSTART
|
|
11201210,
|
|
21201120,
|
|
11201210,
|
|
21201120,
|
|
11201210,
|
|
21201120,
|
|
11101110,
|
|
7008,
|
|
#GOGOEND
|
|
3,
|
|
0033,
|
|
3,
|
|
3360,
|
|
00000008,
|
|
,
|
|
,
|
|
,
|
|
,
|
|
,
|
|
,
|
|
,
|
|
#END
|
|
|
|
COURSE:Easy
|
|
LEVEL:5
|
|
BALLOON:18,4
|
|
SCOREINIT:420
|
|
SCOREDIFF:90
|
|
|
|
#START
|
|
11,
|
|
11,
|
|
11,
|
|
11,
|
|
1110,
|
|
1110,
|
|
1111,
|
|
50000080,
|
|
1110,
|
|
1100,
|
|
1110,
|
|
1100,
|
|
1404,
|
|
0404,
|
|
1404,
|
|
0400,
|
|
1110,
|
|
10101110,
|
|
1110,
|
|
1122,
|
|
1110,
|
|
10101110,
|
|
1110,
|
|
1122,
|
|
1110,
|
|
11101000,
|
|
1110,
|
|
11101000,
|
|
1110,
|
|
11101010,
|
|
1110,
|
|
11101010,
|
|
12,
|
|
1122,
|
|
12,
|
|
1122,
|
|
3,
|
|
0,
|
|
33,
|
|
3333,
|
|
33303330,
|
|
68,
|
|
0,
|
|
#GOGOSTART
|
|
1110,
|
|
1110,
|
|
10101110,
|
|
1110,
|
|
1110,
|
|
1110,
|
|
10101110,
|
|
5008,
|
|
1110,
|
|
1110,
|
|
10101110,
|
|
1110,
|
|
1110,
|
|
1110,
|
|
10101110,
|
|
5008,
|
|
#GOGOEND
|
|
1111,
|
|
22202000,
|
|
1111,
|
|
22202000,
|
|
1122,
|
|
11101000,
|
|
1122,
|
|
5008,
|
|
0303,
|
|
0333,
|
|
0303,
|
|
3337,
|
|
0,
|
|
0,
|
|
8,
|
|
0,
|
|
#GOGOSTART
|
|
10101110,
|
|
0222,
|
|
10101110,
|
|
0222,
|
|
10101110,
|
|
0222,
|
|
11101110,
|
|
7008,
|
|
#GOGOEND
|
|
3,
|
|
0033,
|
|
3,
|
|
3360,
|
|
00000008,
|
|
,
|
|
,
|
|
,
|
|
,
|
|
,
|
|
,
|
|
,
|
|
#END |