334 lines
4.2 KiB
Plaintext
334 lines
4.2 KiB
Plaintext
//TJADB Project
|
|
TITLE:Netemo Netemo
|
|
TITLEJA:ネテモネテモ
|
|
SUBTITLE:--☆Shoji☆ feat. Honoka♡Erika
|
|
SUBTITLEJA:☆しょーじ☆ feat.ほのか♡えりか
|
|
BPM:185
|
|
WAVE:Netemo Netemo.ogg
|
|
OFFSET:-1.100
|
|
DEMOSTART:51.674
|
|
|
|
COURSE:Oni
|
|
LEVEL:8
|
|
SCOREINIT:510
|
|
SCOREDIFF:130
|
|
|
|
|
|
#START
|
|
|
|
|
|
#BARLINEOFF
|
|
0000000022222222,
|
|
#BARLINEON
|
|
1020102210200022,
|
|
1022102210221020,
|
|
1000112210002050,
|
|
000000000000000000000000000000000008000000000000,
|
|
1010201120100012,
|
|
1022102210221020,
|
|
1000112210002050,
|
|
000000000000000000000000000000000008000000000000,
|
|
2022102210200022,
|
|
21121000,
|
|
1222100110202020,
|
|
1000100110202020,
|
|
1122100110101020,
|
|
0020202220200022,
|
|
1112100110102000,
|
|
1000100110201000,
|
|
1122100110202020,
|
|
22020222,
|
|
1222100110202020,
|
|
1000100110202020,
|
|
1122100110202020,
|
|
1020202220200022,
|
|
1112100110102000,
|
|
1000100110201000,
|
|
1122100110202020,
|
|
1020202110102000,
|
|
1022200010222000,
|
|
1010201210101000,
|
|
1122200011222010,
|
|
0022102030004000,
|
|
3000200210202020,
|
|
1000200210202020,
|
|
1000200210102022,
|
|
1000202210100020,
|
|
30401121,
|
|
00401121,
|
|
1011202210102011,
|
|
1010201120104000,//39
|
|
|
|
#GOGOSTART
|
|
1022102210202011,
|
|
1020102011201120,
|
|
1111201011112011,
|
|
1022102210202020,
|
|
1022102210202011,
|
|
1020102011201120,
|
|
1000221011102011,
|
|
1020202020202220,
|
|
1022102210202011,
|
|
1020102011201120,
|
|
1022102010221020,
|
|
1022102210202020,
|
|
1022102210202011,
|
|
1020102011201020,
|
|
3022203022203022,
|
|
1,
|
|
1010102210100011,
|
|
1022102210221020,
|
|
1000112210002050,
|
|
000000000000000000000000000000000008000000000000,
|
|
1112201122202210,
|
|
0022102210221020,
|
|
2222221111112222,
|
|
2211221120202060,
|
|
,
|
|
000000000000000000000000000000000000000008000000,//65
|
|
|
|
#GOGOEND
|
|
2022121211221000,
|
|
|
|
|
|
#END
|
|
|
|
|
|
COURSE:Hard
|
|
LEVEL:6
|
|
SCOREINIT:590
|
|
SCOREDIFF:160
|
|
|
|
#START
|
|
#BARLINEOFF
|
|
0022,
|
|
#BARLINEON
|
|
11121101,
|
|
02121122,
|
|
10121025,
|
|
000000000000000000000000000000000008000000000000,
|
|
11121101,
|
|
02121122,
|
|
10121025,
|
|
000000000000000000000000000000000008000000000000,
|
|
2022202010200020,
|
|
01221000,
|
|
10100121,
|
|
00010121,
|
|
00100112,
|
|
0010201110100010,
|
|
00100120,
|
|
10010120,
|
|
00100120,
|
|
12210112,
|
|
00100121,
|
|
00010121,
|
|
00100111,
|
|
2010201110100010,
|
|
00100120,
|
|
10010120,
|
|
00100120,
|
|
12210120,
|
|
1011100010111000,
|
|
1010001110102000,
|
|
1011100010111010,
|
|
0011101000102000,
|
|
3000200110102000,
|
|
1000200110102000,
|
|
1000200110100050,
|
|
000008000000200000000100100000100000000000000000,
|
|
30401121,
|
|
00401121,
|
|
1011101010111010,
|
|
0011101010004000,//39
|
|
|
|
#GOGOSTART
|
|
1020102010200011,
|
|
12121110,
|
|
10121011,
|
|
02020222,
|
|
1020102010200011,
|
|
12121110,
|
|
10121011,
|
|
02221122,
|
|
1020102010200011,
|
|
12121110,
|
|
10121011,
|
|
02020222,
|
|
1020102010200011,
|
|
12121110,
|
|
500000000008000000500000000008000000500008000000,
|
|
1,
|
|
11121101,
|
|
02121122,
|
|
10121025,
|
|
000000000000000000000000000000000008000000000000,
|
|
11121101,
|
|
02121122,
|
|
30030030,
|
|
01121226,
|
|
,
|
|
000000000000000000000000000000000000000008000000,//65
|
|
|
|
#GOGOEND
|
|
2022201110203000,
|
|
,
|
|
#END
|
|
|
|
COURSE:Normal
|
|
LEVEL:6
|
|
|
|
#START
|
|
#BARLINEOFF
|
|
,
|
|
#BARLINEON
|
|
11101101,
|
|
01101110,
|
|
10111015,
|
|
000000000000000000000000000000000008000000000000,
|
|
11101101,
|
|
01101110,
|
|
10111015,
|
|
000000000000000000000000000000000008000000000000,
|
|
22202202,
|
|
02202000,
|
|
30000111,
|
|
00000111,
|
|
00000001,
|
|
01101101,
|
|
0004,
|
|
0004,
|
|
0004,
|
|
20020111,
|
|
00000111,
|
|
00000111,
|
|
00000101,
|
|
10101101,
|
|
0004,
|
|
0004,
|
|
0004,
|
|
22020020,
|
|
11101110,
|
|
11011010,
|
|
11101111,
|
|
01010040,
|
|
30201110,
|
|
10201110,
|
|
10201101,
|
|
00201105,
|
|
,
|
|
000000000000000008000000000000000000000000000000,
|
|
10111101,
|
|
01101040,//39
|
|
|
|
#GOGOSTART
|
|
11101101,
|
|
01101110,
|
|
10111011,
|
|
02020220,
|
|
11101101,
|
|
01101110,
|
|
10111011,
|
|
02220220,
|
|
11101101,
|
|
01101110,
|
|
10111011,
|
|
02020220,
|
|
11101101,
|
|
01101110,
|
|
30030030,
|
|
,
|
|
11101101,
|
|
01101110,
|
|
10111015,
|
|
000000000000000000000000000000000008000000000000,
|
|
11101101,
|
|
01101110,
|
|
30030030,
|
|
01101106,
|
|
,
|
|
000000000000000000000000000000000000000000000008,//65
|
|
|
|
#GOGOEND
|
|
0034,
|
|
,
|
|
#END
|
|
|
|
COURSE:Easy
|
|
LEVEL:3
|
|
|
|
#START
|
|
#BARLINEOFF
|
|
,
|
|
#BARLINEON
|
|
1110,
|
|
1110,
|
|
10001005,
|
|
000000000000000000000000000008000000000000000000,
|
|
1110,
|
|
1110,
|
|
10001005,
|
|
000000000000000000000000000008000000000000000000,
|
|
11,
|
|
2220,
|
|
1001,
|
|
1001,
|
|
1,
|
|
1111,
|
|
1004,
|
|
0004,
|
|
0004,
|
|
20020000,
|
|
1001,
|
|
1001,
|
|
1,
|
|
1111,
|
|
1004,
|
|
0004,
|
|
0004,
|
|
20020000,
|
|
1111,
|
|
34,
|
|
1111,
|
|
3044,
|
|
0001,
|
|
1001,
|
|
11,
|
|
10001005,
|
|
,
|
|
000000000000000008000000000000000000000000000000,
|
|
1110,
|
|
1110,//39
|
|
|
|
#GOGOSTART
|
|
1110,
|
|
1111,
|
|
11,
|
|
2220,
|
|
1110,
|
|
1111,
|
|
11,
|
|
2220,
|
|
1110,
|
|
1111,
|
|
11,
|
|
2220,
|
|
1110,
|
|
1111,
|
|
30030030,
|
|
,
|
|
1110,
|
|
1110,
|
|
10001005,
|
|
000000000000000000000000000008000000000000000000,
|
|
1110,
|
|
1110,
|
|
30030030,
|
|
03003006,
|
|
,
|
|
000000000000000000000000000000000000000000000008,//65
|
|
|
|
#GOGOEND
|
|
0004,
|
|
,
|
|
#END |