Files
TJA-by-song-no/tja/596.tja
2026-03-04 23:59:27 +09:00

430 lines
6.4 KiB
Plaintext
Raw Permalink Blame History

This file contains ambiguous Unicode characters
This file contains Unicode characters that might be confused with other characters. If you think that this is intentional, you can safely ignore this warning. Use the Escape button to reveal them.
//TJADB Project
TITLE:Diver
TITLEJA:Diver
SUBTITLE:--Kawagen Collagen/Treasure Gaust Gaust Diver
SUBTITLEJA:「トレジャーガウスト ガウストダイバー」より
BPM:136
WAVE:Diver.ogg
OFFSET:-2.041
DEMOSTART:43.722
//Shinuchi: 8390/4830/2530/1600
COURSE:Oni
LEVEL:9
BALLOON:
SCOREINIT:540,1600
SCOREDIFF:140
#START
2000202200200020,
0020202220200020,
0000221210200010,
0020201010202212,
1020102210201020,
1020102210201122,
1000100011200050,
000000000000000000000008000000000000200000000000, //8
1002002112112112,
1121102111200112,
1120211211200112,
1121102110202210,
1111222211200112,
1002112112020112,
1221211212212112,
1221211210102210, //16
1010201010200012,
11212201,
1121201121201011,
2120202122020020,
1112221122100011,
1022201122100010,
100000100000200000500000000000000000000000000008,
0020200222120220, //24
#GOGOSTART
1020100210122210,
0020100210122210,
0020102210122022,
0022102111201020,
1020100210122210,
0020100210122210,
0020102210122022,
0022102111201020, //32
1020100210122210,
0020100210122210,
0020102210122022,
0022102111201020,
1020100210122210,
0020100210122210,
0020102210122022,
0022102011221122, //40
#GOGOEND
1020100210221020,
1020100210221020,
1020100210221020,
1010201120112010,
2000200220102010,
2000200220102211,
2011200210100010,
0010110110000000, //48
2000202200200020,
0020202200200020,
0020202200200020,
0020202200200020,
2000202200200020,
0020202200200020,
0020202200200020,
0221122110111210, //56
#GOGOSTART
1020100210122210,
0020100210122210,
0020102210122022,
0022102111201020,
1020100210122210,
0020100210122210,
0020102210122022,
0022102011221020, //64
#GOGOEND
0,
01,
1,
0020200222020220,
1000200210002000,
1000200210002211,
2011211210100050,
000000000000000000000000000000000000000000000008,
0,
0, //74
#END
COURSE:Hard
LEVEL:6
BALLOON:15,5,7,8,9,10,7,14
SCOREINIT:660,2680
SCOREDIFF:168
#START
7,
80000001,
00102201,
01102210,
1212,
11201120,
1000100022200050,
000000000000000000000008000000000000200000000000, //8
1001001110101000,
2020202022200000,
1010101011100000,
22202220,
1010101011100000,
2000200022020000,
1000111010001110,
1000111010101110, //16
1000200010200011,
1010200010200011,
1010201010201011,
1010200022020000,
1011101011100000,
2022202022200010,
100000100000200000500000000000000000000000000008,
02122001, //24
#GOGOSTART
0020100220200010,
0020100220200010,
02101121,
01101121,
0020100220200010,
0020100220200010,
02101121,
01101121, //32
0020100220200010,
0020100220200010,
02101121,
01101121,
0020100220200010,
0020100220200010,
02101121,
000000100000100000000000500000000000000008000000, //40
#GOGOEND
1020100110201000,
1020100110201000,
70801210,
11212120,
2222,
2222,
2022200110100010,
0010110110000070, //48
00008007,
00008001,
01111002,
00202227,
00008007,
00008002,
02222022,
0020200010111010, //56
#GOGOSTART
0020100220200010,
0020100220200010,
02101121,
01101121,
0020100220200010,
0020100220200010,
02101121,
01107000, //64
#GOGOEND
8,
01,
1,
0010100222020220,
1000200110102000,
1000200110102000,
2022201110100090,
000000000000000000000000000000000090000000000008,
0,
0, //74
#END
COURSE:Normal
LEVEL:5
BALLOON:6,7,6,6,7,7,7,10
SCOREINIT:1000,5160
SCOREDIFF:290
#START
500000000000000000000000000000000000000000000008,
00202011,
00101107,
08,
1111,
2222,
10101105,
000000000000000000000000000000000008000000000000, //8
10111010,
11101100,
11101100,
10101110,
10111100,
10101110,
1212,
10202220, //16
10102200,
10102200,
1212,
11102020,
10111100,
20222200,
10050000,
000000000008000000000000000000000000400000000000, //24
#GOGOSTART
500000000000000000000008000000000000000000500000,
000000000000000000000008000000000000000000100000,
01101002,
02202005,
000000000000000008000000000000000000000000500000,
000000000000000008000000000000000000000000100000,
01101002,
02200005, //32
000000000000000000000008000000000000000000500000,
000000000000000000000008000000000000000000100000,
01101002,
02202005,
000000000000000008000000000000000000000000500000,
000000000000000008000000000000000000000000100000,
01101002,
02207000, //40
#GOGOEND
8012,
1212,
1012,
11,
2222,
2222,
10101105,
000000000000000000000008000000000000000000700000, //48
00008007,
00008001,
01101002,
02202007,
00008007,
00008001,
01101002,
02200020, //56
#GOGOSTART
500000000000000000000008000000000000000000500000,
000000000000000000000008000000000000000000100000,
01102001,
01102005,
000000000000000008000000000000000000000000500000,
000000000000000008000000000000000000000000100000,
01102001,
02207000, //64
#GOGOEND
8,
01,
1,
0020200020020020,
1111,
2222,
10101109,
000000000000000000000000000000000090000000000008,
0,
0, //74
#END
COURSE:Easy
LEVEL:3
BALLOON:4,5,5,5,5,8
SCOREINIT:970,8880
SCOREDIFF:398
#START
500000000000000000000000000000000000000000000008,
00000001,
00101007,
08,
11,
11,
10101005,
000000000000000000000000000000000008000000000000, //8
11,
1110,
1110,
1110,
11,
1110,
11,
12, //16
1110,
1110,
1111,
1110,
1110,
1110,
10050000,
000000000008000000000000000000000000400000000000, //24
#GOGOSTART
500000000000000000000008000000000000000000500000,
000000000000000000000008000000000000000000100000,
00001002,
00200005,
000000000000000008000000000000000000000000500000,
000000000000000008000000000000000000000000100000,
00001001,
00100005, //32
000000000000000000000008000000000000000000500000,
000000000000000000000008000000000000000000100000,
00001002,
00200005,
000000000000000008000000000000000000000000500000,
000000000000000008000000000000000000000000100000,
00001001,
0100, //40
#GOGOEND
12,
12,
12,
1,
22,
22,
20202005,
000000000000000000000008000000000000000000700000, //48
00008007,
00008001,
00001002,
00200007,
00008007,
00008001,
00001002,
0200, //56
#GOGOSTART
500000000000000000000008000000000000000000500000,
000000000000000000000008000000000000000000100000,
00001002,
00200005,
000000000000000008000000000000000000000000500000,
000000000000000008000000000000000000000000100000,
00001001,
0100, //64
#GOGOEND
1,
01,
1,
0220,
1110,
2220,
10101009,
000000000000000000000000000000000090000000000008,
0,
0, //74
#END