867 lines
9.9 KiB
Plaintext
867 lines
9.9 KiB
Plaintext
//TJADB Project
|
|
TITLE:Taiko March
|
|
TITLEJA:太鼓のマーチ
|
|
SUBTITLE:--Yuuji Masubuchi/Namco Games
|
|
SUBTITLEJA:リッジレーサー
|
|
BPM:144.9514
|
|
WAVE:Taiko March.ogg
|
|
OFFSET:-1.995
|
|
DEMOSTART:8.201
|
|
|
|
COURSE:Oni
|
|
LEVEL:7
|
|
|
|
STYLE:Double
|
|
BALLOON:8
|
|
|
|
|
|
#START P1
|
|
|
|
|
|
1000001110000011,
|
|
1010111110102000,
|
|
#BPMCHANGE 145.32
|
|
00000001,
|
|
#BPMCHANGE 144.46
|
|
1130,
|
|
#GOGOSTART
|
|
#BPMCHANGE 145
|
|
1010001010001001,
|
|
#BPMCHANGE 145.58
|
|
11011000,
|
|
#BPMCHANGE 145
|
|
11011010,
|
|
1011100110003000,
|
|
01010101,
|
|
#BPMCHANGE 144.39
|
|
0010001000222020,
|
|
#BPMCHANGE 144.97
|
|
11001000,
|
|
#BPMCHANGE 146.5
|
|
1130,
|
|
#GOGOEND
|
|
#BPMCHANGE 145
|
|
10220021,
|
|
10220020,
|
|
10220021,
|
|
10220000,
|
|
10220021,
|
|
1000202000001011,
|
|
1000000010201120,
|
|
0000000011101000,
|
|
#GOGOSTART
|
|
11,
|
|
11,
|
|
11,
|
|
1000000010001110,
|
|
#GOGOEND
|
|
1011102000000000,
|
|
#BPMCHANGE 144.1
|
|
1011102000000000,
|
|
#BPMCHANGE 144.97
|
|
1110000011100000,
|
|
#BPMCHANGE 146.09
|
|
0011101030000000,
|
|
#BPMCHANGE 145
|
|
11101110,
|
|
1010111100101000,
|
|
,
|
|
,
|
|
33000000,
|
|
500000000008000000000000000000000000000000000000,
|
|
,
|
|
0000001110101000,
|
|
1,
|
|
#BPMCHANGE 144
|
|
0220,
|
|
#GOGOSTART
|
|
#BPMCHANGE 145
|
|
111100200200,
|
|
111100100200,
|
|
200111100200,
|
|
200100111100,
|
|
200200111100,
|
|
200200100111,
|
|
100200200111,
|
|
#BPMCHANGE 145.72
|
|
100200200101,
|
|
#GOGOEND
|
|
#BPMCHANGE 145
|
|
1,
|
|
#MEASURE 2/4
|
|
111100,
|
|
#MEASURE 4/4
|
|
0708,
|
|
#MEASURE 5/4
|
|
00010,
|
|
#MEASURE 4/4
|
|
0101,
|
|
000100111111,
|
|
100200101200,
|
|
1212,
|
|
101200100200,
|
|
101201001200,
|
|
100200101200,
|
|
1212,
|
|
101200100200,
|
|
101011101011,
|
|
101200100200,
|
|
101201001200,
|
|
100200101200,
|
|
1212,
|
|
101200100200,
|
|
101201001200,
|
|
100200101200,
|
|
000222000000,
|
|
200200111100,
|
|
200200111100,
|
|
200200111100,
|
|
102102121200,
|
|
111100200200,
|
|
111100200200,
|
|
0404,
|
|
000400000222,
|
|
#GOGOSTART
|
|
100100121201,
|
|
100100121201,
|
|
100100121201,
|
|
102102121201,
|
|
121201100100,
|
|
121201100100,
|
|
121201100100,
|
|
121201102100,
|
|
#GOGOEND
|
|
5,
|
|
000000000008000000000000100000000000100000000000,
|
|
101200101200,
|
|
101200101200,
|
|
500000000008000000000000100000000000100000000000,
|
|
500000000008000000000000300000000000300000000000,
|
|
211211211211,
|
|
212121212121,
|
|
111100111100,
|
|
111111000000,
|
|
|
|
|
|
#END
|
|
|
|
|
|
BALLOON:10
|
|
|
|
|
|
#START P2
|
|
|
|
|
|
1000001110000011,
|
|
1010111110102000,
|
|
#BPMCHANGE 145.32
|
|
00000001,
|
|
#BPMCHANGE 144.46
|
|
1130,
|
|
#GOGOSTART
|
|
#BPMCHANGE 145
|
|
01010101,
|
|
#BPMCHANGE 145.58
|
|
0010001000222020,
|
|
#BPMCHANGE 145
|
|
01010101,
|
|
01011030,
|
|
1010001010001001,
|
|
#BPMCHANGE 144.39
|
|
11011000,
|
|
#BPMCHANGE 144.97
|
|
11001000,
|
|
#BPMCHANGE 146.5
|
|
1130,
|
|
#GOGOEND
|
|
#BPMCHANGE 145
|
|
11,
|
|
11,
|
|
11,
|
|
1000000010222020,
|
|
11,
|
|
1000000010001110,
|
|
1020112000000000,
|
|
1020112000000000,
|
|
#GOGOSTART
|
|
10220021,
|
|
10220020,
|
|
10220021,
|
|
1000202000001011,
|
|
#GOGOEND
|
|
0000000010111020,
|
|
#BPMCHANGE 144.1
|
|
0000000000222020,
|
|
#BPMCHANGE 144.97
|
|
1110000011100000,
|
|
#BPMCHANGE 146.09
|
|
0011101030000000,
|
|
#BPMCHANGE 145
|
|
,
|
|
,
|
|
11101110,
|
|
1101101000101000,
|
|
00003300,
|
|
00003300,
|
|
,
|
|
,
|
|
10001111,
|
|
#BPMCHANGE 144
|
|
1220,
|
|
#GOGOSTART
|
|
#BPMCHANGE 145
|
|
200200111100,
|
|
200200100111,
|
|
100200200111,
|
|
100100111100,
|
|
111100200200,
|
|
111100100200,
|
|
200111100200,
|
|
#BPMCHANGE 145.72
|
|
200111100000,
|
|
#GOGOEND
|
|
#BPMCHANGE 145
|
|
7008,
|
|
#MEASURE 2/4
|
|
,
|
|
#MEASURE 4/4
|
|
101100000000,
|
|
#MEASURE 5/4
|
|
111100000100000,
|
|
#MEASURE 4/4
|
|
11,
|
|
100000111111,
|
|
101200100200,
|
|
101201001200,
|
|
100200101200,
|
|
1212,
|
|
101200100200,
|
|
101201001200,
|
|
100200101200,
|
|
101201001200,
|
|
100200101200,
|
|
1212,//62
|
|
101200100200,
|
|
101201001200,
|
|
100200101200,
|
|
1212,
|
|
101200100200,
|
|
111000111111,
|
|
111100200200,
|
|
111100200200,
|
|
111100200200,
|
|
102102121200,
|
|
200200111100,
|
|
200200111100,
|
|
33,
|
|
33,
|
|
#GOGOSTART
|
|
121201100100,
|
|
121201100100,
|
|
121201100100,
|
|
121201102102,
|
|
100100121201,
|
|
100100121201,
|
|
100100121201,
|
|
102102121201,
|
|
#GOGOEND
|
|
100200101200,
|
|
100200101200,
|
|
5,
|
|
000000000008000000000000100000000000100000000000,
|
|
100000000000100000000000500000000008000000000000,
|
|
300000000000300000000000500000000008000000000000,
|
|
211211211211,
|
|
212121212121,
|
|
111100111100,
|
|
111111000000,
|
|
|
|
|
|
#END
|
|
|
|
|
|
STYLE:Single
|
|
BALLOON:10,8
|
|
SCOREINIT:540
|
|
SCOREDIFF:140
|
|
|
|
|
|
#START
|
|
|
|
|
|
1000001110000011,
|
|
1010111110102000,
|
|
#BPMCHANGE 145.32
|
|
00000001,
|
|
#BPMCHANGE 144.463
|
|
1130,//4
|
|
|
|
#BPMCHANGE 145
|
|
#GOGOSTART
|
|
01010101,
|
|
#BPMCHANGE 145.583
|
|
0010001000222020,
|
|
#BPMCHANGE 145.003
|
|
01010101,
|
|
01011030,
|
|
01010101,
|
|
#BPMCHANGE 144.392
|
|
0010001000222020,
|
|
#BPMCHANGE 144.966
|
|
11001000,
|
|
#BPMCHANGE 146.496
|
|
1130,//12
|
|
|
|
#BPMCHANGE 145.003
|
|
#GOGOEND
|
|
10220021,
|
|
10220020,
|
|
10220021,
|
|
1000202000222020,
|
|
10220021,
|
|
1000202000001111,//18
|
|
|
|
#GOGOSTART
|
|
1020112010201120,
|
|
1020112011101000,//20
|
|
|
|
#GOGOEND
|
|
10220021,
|
|
10220020,
|
|
10220021,
|
|
1000202011111010,//24
|
|
|
|
#GOGOSTART
|
|
1011102010111020,
|
|
#BPMCHANGE 144.095
|
|
1011102000202020,
|
|
#BPMCHANGE 144.967
|
|
1110000011100000,
|
|
#BPMCHANGE 146.092
|
|
0011101030000000,//28
|
|
|
|
#BPMCHANGE 145.003
|
|
#GOGOEND
|
|
11101110,
|
|
1010111100101000,
|
|
11101110,
|
|
1101101000101000,
|
|
33003300,
|
|
500000080000300300000000,
|
|
,
|
|
0000001110101000,
|
|
10001111,
|
|
#BPMCHANGE 145.003
|
|
1220,
|
|
101100101100,
|
|
111100100111,
|
|
100111100100,
|
|
100100111100,
|
|
101100101100,
|
|
111100100111,
|
|
100111100100,
|
|
#BPMCHANGE 144.724
|
|
100111100101,
|
|
#BPMCHANGE 145.003
|
|
7008,
|
|
#MEASURE 2/4
|
|
111100,
|
|
#MEASURE 4/4
|
|
101700000800,
|
|
#MEASURE 5/4
|
|
111100000100000,
|
|
#MEASURE 4/4
|
|
1111,
|
|
100100111111,//52
|
|
|
|
#GOGOSTART
|
|
100200101200,
|
|
100200101200,
|
|
100200101200,
|
|
101201001200,
|
|
100200101200,
|
|
100200101200,
|
|
100200101200,
|
|
101011101011,
|
|
100200101200,
|
|
100200101200,
|
|
100200101200,
|
|
101201001200,
|
|
100200101200,
|
|
100200101200,
|
|
100200101200,
|
|
111122221111,//68
|
|
|
|
#GOGOEND
|
|
100100111100,
|
|
100100111100,
|
|
100100111100,
|
|
102102121200,
|
|
100100111100,
|
|
100100111100,
|
|
111200111200,
|
|
111200111200,
|
|
100100121201,
|
|
100100121201,
|
|
100100121201,
|
|
102102121201,
|
|
100100121201,
|
|
100100121201,
|
|
100100121201,
|
|
102102121201,//84
|
|
|
|
#GOGOSTART
|
|
100200101200,
|
|
100200101200,
|
|
101200101200,
|
|
101200101200,
|
|
1111,
|
|
1133,
|
|
211211211211,
|
|
212121212121,
|
|
111100111100,
|
|
111111000000,//94
|
|
|
|
#GOGOEND
|
|
|
|
|
|
#END
|
|
|
|
|
|
COURSE:Hard
|
|
LEVEL:6
|
|
BALLOON:10,8
|
|
SCOREINIT:510
|
|
SCOREDIFF:110
|
|
|
|
#START
|
|
1000001110000011,
|
|
11101120,
|
|
#BPMCHANGE 145.32
|
|
00000001,
|
|
#BPMCHANGE 144.463
|
|
1130,//4
|
|
|
|
#BPMCHANGE 145
|
|
#GOGOSTART
|
|
01010101,
|
|
#BPMCHANGE 145.583
|
|
0010001000222000,
|
|
#BPMCHANGE 145.003
|
|
01010101,
|
|
01011030,
|
|
01010101,
|
|
#BPMCHANGE 144.392
|
|
0010001000222000,
|
|
#BPMCHANGE 144.966
|
|
11001000,
|
|
#BPMCHANGE 146.496
|
|
1130,//12
|
|
|
|
#BPMCHANGE 145.003
|
|
#GOGOEND
|
|
10220021,
|
|
10220020,
|
|
10220021,
|
|
1000202000222020,
|
|
10220021,
|
|
1000202000001111,//18
|
|
|
|
#GOGOSTART
|
|
1000111010001110,
|
|
1000111010000000,//20
|
|
|
|
#GOGOEND
|
|
10220021,
|
|
10220020,
|
|
10220021,
|
|
10221000,//24
|
|
|
|
#GOGOSTART
|
|
1011100010111000,
|
|
#BPMCHANGE 144.095
|
|
1011100000202000,
|
|
#BPMCHANGE 144.967
|
|
1110000011100000,
|
|
#BPMCHANGE 146.092
|
|
0011100030000000,//28
|
|
|
|
#BPMCHANGE 145.003
|
|
#GOGOEND
|
|
11101110,
|
|
1010111000101000,
|
|
11101110,
|
|
1001101000101000,
|
|
33003300,
|
|
500000080000300300000000,
|
|
,
|
|
,
|
|
10001111,
|
|
#BPMCHANGE 145.003
|
|
1220,
|
|
101100101100,
|
|
111100100111,
|
|
100111100100,
|
|
100100111100,
|
|
101100101100,
|
|
111100100111,
|
|
100111100100,
|
|
#BPMCHANGE 145.724
|
|
100111100101,
|
|
#BPMCHANGE 145.003
|
|
7008,
|
|
#MEASURE 2/4
|
|
111100,
|
|
#MEASURE 4/4
|
|
101700000800,
|
|
#MEASURE 5/4
|
|
111100000100000,
|
|
#MEASURE 4/4
|
|
1111,
|
|
100100111100,//52
|
|
|
|
#GOGOSTART
|
|
100200101200,
|
|
100200101200,
|
|
100200101200,
|
|
101201001200,
|
|
100200101200,
|
|
100200101200,
|
|
100200101200,
|
|
500000000000000000000000000000000008000000000000,
|
|
100200101200,
|
|
100200101200,
|
|
100200101200,
|
|
101201001200,
|
|
100200101200,
|
|
100200101200,
|
|
100200101200,
|
|
500000000000000000000000000000000008000000000000,//68
|
|
|
|
#GOGOEND
|
|
100100111100,
|
|
100100111100,
|
|
100100111100,
|
|
102102121200,
|
|
100100111100,
|
|
100100111100,
|
|
1212,
|
|
1212,
|
|
100100121200,
|
|
100100121200,
|
|
100100121200,
|
|
100102121200,
|
|
100100121201,
|
|
100100121201,
|
|
100100121201,
|
|
100102121201,//84
|
|
|
|
#GOGOSTART
|
|
100200101200,
|
|
100200101200,
|
|
100200101200,
|
|
100200101200,
|
|
1111,
|
|
1133,
|
|
3333,
|
|
600000000000000000000000000000000008000000000000,
|
|
111100111100,
|
|
111111000000,//94
|
|
|
|
#GOGOEND
|
|
,
|
|
,
|
|
,
|
|
#END
|
|
|
|
COURSE:Normal
|
|
LEVEL:6
|
|
BALLOON:9,7
|
|
SCOREINIT:410
|
|
SCOREDIFF:140
|
|
|
|
#START
|
|
11,
|
|
10101120,
|
|
#BPMCHANGE 145.32
|
|
00000001,
|
|
#BPMCHANGE 144.463
|
|
1130,//4
|
|
|
|
#BPMCHANGE 145
|
|
#GOGOSTART
|
|
1111,
|
|
#BPMCHANGE 145.583
|
|
10101110,
|
|
#BPMCHANGE 145.003
|
|
1111,
|
|
1113,
|
|
1111,
|
|
#BPMCHANGE 144.392
|
|
10101110,
|
|
#BPMCHANGE 144.966
|
|
11001000,
|
|
#BPMCHANGE 146.496
|
|
1130,//12
|
|
|
|
#BPMCHANGE 145.003
|
|
#GOGOEND
|
|
10220020,
|
|
10220020,
|
|
10220020,
|
|
10220010,
|
|
10220020,
|
|
10220030,//18
|
|
|
|
#GOGOSTART
|
|
12101210,
|
|
12101000,//20
|
|
|
|
#GOGOEND
|
|
10220020,
|
|
10220020,
|
|
10220020,
|
|
10220010,//24
|
|
|
|
#GOGOSTART
|
|
1111,
|
|
#BPMCHANGE 144.095
|
|
100000500000000000000008000000000000000000000000,
|
|
#BPMCHANGE 144.967
|
|
1110000011100000,
|
|
#BPMCHANGE 146.092
|
|
1130,//28
|
|
|
|
#BPMCHANGE 145.003
|
|
#GOGOEND
|
|
1111,
|
|
10100110,
|
|
1111,
|
|
10100110,
|
|
33003300,
|
|
500000080000300300000000,
|
|
,
|
|
0001,
|
|
10001110,
|
|
#BPMCHANGE 145.003
|
|
1220,
|
|
11,
|
|
1110,
|
|
11,
|
|
100100111100,
|
|
11,
|
|
1110,
|
|
1011,
|
|
#BPMCHANGE 144.724
|
|
11,
|
|
#BPMCHANGE 145.003
|
|
7008,
|
|
#MEASURE 2/4
|
|
111100,
|
|
#MEASURE 4/4
|
|
1708,
|
|
#MEASURE 5/4
|
|
111100000100000,
|
|
#MEASURE 4/4
|
|
1111,
|
|
500000000000000000000000000000000008000000000000,//52
|
|
|
|
#GOGOSTART
|
|
100000101100,
|
|
100000101100,
|
|
100000101100,
|
|
100000101100,
|
|
100000101100,
|
|
100000101100,
|
|
100000101100,
|
|
1110,
|
|
100000102200,
|
|
100000102200,
|
|
100000102200,
|
|
100000102200,
|
|
100000102200,
|
|
100000102200,
|
|
100000102200,
|
|
1110,//68
|
|
|
|
#GOGOEND
|
|
100100111100,
|
|
1110,
|
|
100100111100,
|
|
1110,
|
|
100100111100,
|
|
1110,
|
|
0303,
|
|
0303,
|
|
100100111100,
|
|
1110,
|
|
100100111100,
|
|
1110,
|
|
100100111100,
|
|
1110,
|
|
100100111100,
|
|
1110,//84
|
|
|
|
#GOGOSTART
|
|
100000101200,
|
|
100000101200,
|
|
100000101200,
|
|
100000101200,
|
|
1111,
|
|
1133,
|
|
2222,
|
|
500000000000000000000000000000000008000000000000,
|
|
111100111100,
|
|
300303000000,//94
|
|
|
|
#GOGOEND
|
|
,
|
|
,
|
|
,
|
|
#END
|
|
|
|
COURSE:Easy
|
|
LEVEL:5
|
|
BALLOON:7,6
|
|
SCOREINIT:460
|
|
SCOREDIFF:110
|
|
|
|
#START
|
|
11,
|
|
1102,
|
|
#BPMCHANGE 145.32
|
|
,
|
|
#BPMCHANGE 144.463
|
|
1130,//4
|
|
|
|
#BPMCHANGE 145
|
|
#GOGOSTART
|
|
1111,
|
|
#BPMCHANGE 145.583
|
|
1110,
|
|
#BPMCHANGE 145.003
|
|
1111,
|
|
1110,
|
|
1111,
|
|
#BPMCHANGE 144.392
|
|
1110,
|
|
#BPMCHANGE 144.966
|
|
11,
|
|
#BPMCHANGE 146.496
|
|
1130,//12
|
|
|
|
#BPMCHANGE 145.003
|
|
#GOGOEND
|
|
1202,
|
|
1202,
|
|
1202,
|
|
1202,
|
|
1202,
|
|
1200,//18
|
|
|
|
#GOGOSTART
|
|
1212,
|
|
1210,//20
|
|
|
|
#GOGOEND
|
|
1202,
|
|
1,
|
|
1202,
|
|
1,//24
|
|
|
|
#GOGOSTART
|
|
1111,
|
|
#BPMCHANGE 144.095
|
|
500000000000000000000000000008000000000000000000,
|
|
#BPMCHANGE 144.967
|
|
33,
|
|
#BPMCHANGE 146.092
|
|
1130,//28
|
|
|
|
#BPMCHANGE 145.003
|
|
#GOGOEND
|
|
1111,
|
|
1100,
|
|
1111,
|
|
1100,
|
|
11001100,
|
|
500000080000100100000000,
|
|
,
|
|
0011,
|
|
1011,
|
|
#BPMCHANGE 145.003
|
|
12,
|
|
11,
|
|
1110,
|
|
11,
|
|
1110,
|
|
11,
|
|
1110,
|
|
1011,
|
|
#BPMCHANGE 144.724
|
|
13,
|
|
#BPMCHANGE 145.003
|
|
7008,
|
|
#MEASURE 2/4
|
|
,
|
|
#MEASURE 4/4
|
|
0708,
|
|
#MEASURE 5/4
|
|
,
|
|
#MEASURE 4/4
|
|
11,
|
|
1111,//52
|
|
|
|
#GOGOSTART
|
|
1012,
|
|
1012,
|
|
1012,
|
|
1012,
|
|
1012,
|
|
1012,
|
|
1011,
|
|
1,
|
|
1101,
|
|
11,
|
|
1101,
|
|
11,
|
|
1101,
|
|
11,
|
|
1101,
|
|
11,//68
|
|
|
|
#GOGOEND
|
|
1101,
|
|
12,
|
|
1101,
|
|
12,
|
|
1101,
|
|
12,
|
|
33,
|
|
33,
|
|
1101,
|
|
22,
|
|
1101,
|
|
22,
|
|
1101,
|
|
22,
|
|
1101,
|
|
22,//84
|
|
|
|
#GOGOSTART
|
|
1210,
|
|
1210,
|
|
1210,
|
|
1210,
|
|
1111,
|
|
1110,
|
|
2222,
|
|
2220,
|
|
33,
|
|
3330,//94
|
|
|
|
#GOGOEND
|
|
,
|
|
,
|
|
,
|
|
#END |