456 lines
6.6 KiB
Plaintext
456 lines
6.6 KiB
Plaintext
//TJADB Project
|
|
TITLE:Caramel Time☆
|
|
TITLEJA:カラメルタイム★
|
|
SUBTITLE:--Tanqun
|
|
SUBTITLEJA:たんきゅん
|
|
BPM:160
|
|
WAVE:Caramel Time.ogg
|
|
OFFSET:-1.803
|
|
DEMOSTART:45.662
|
|
|
|
COURSE:Oni
|
|
LEVEL:8
|
|
SCOREINIT:360
|
|
SCOREDIFF:100
|
|
|
|
|
|
#START
|
|
|
|
|
|
#MEASURE 2/4
|
|
,
|
|
#MEASURE 4/4
|
|
1000100210102010,
|
|
0010201202102010,
|
|
1000200210102010,
|
|
0010201202102000,
|
|
1000200210102012,
|
|
0210200210201000,
|
|
1000100210102012,
|
|
0210201202201000,
|
|
1000200210102012,
|
|
0220102212201000,
|
|
1000100210102012,
|
|
0210200212221000,
|
|
2022022020100010,
|
|
0210200210201000,
|
|
1000100210102012,
|
|
0210201202201000,
|
|
1000200210102012,
|
|
0210200210201000,
|
|
1000200210202010,
|
|
2210201212201000,
|
|
10212021,
|
|
22012010,
|
|
10212011,
|
|
12112010,
|
|
10012001,
|
|
22012012,
|
|
1000201210202010,
|
|
1110201202102020,
|
|
1111112220002020,//30
|
|
|
|
#GOGOSTART
|
|
1120202211202022,
|
|
1120202211202022,
|
|
1120202210202000,
|
|
10211021,
|
|
1120202211202022,
|
|
1120202211202022,
|
|
1000201110202010,
|
|
10211021,//38
|
|
|
|
#GOGOEND
|
|
10012002,
|
|
12102020,
|
|
10012002,
|
|
12112010,
|
|
1000200220201000,
|
|
1000200220201020,
|
|
2010201022102010,//45
|
|
|
|
#GOGOSTART
|
|
1120202211202022,
|
|
1120202211202022,
|
|
1120202210202000,
|
|
10211021,
|
|
1120202211202022,
|
|
1120202211202022,
|
|
1120202210202020,
|
|
2211221112211222,
|
|
1000001122102010,
|
|
02102010,
|
|
1000001122102011,
|
|
2210201020002000,
|
|
2212201022122010,
|
|
2212221222122210,//59
|
|
|
|
#GOGOEND
|
|
1000100210102012,
|
|
2210201222102010,
|
|
1000200210102012,
|
|
2210201202102000,//63
|
|
|
|
#GOGOSTART
|
|
30220022,
|
|
3000202022122212,
|
|
1120202210202000,
|
|
10211021,
|
|
1120202211202022,
|
|
1120202211202020,
|
|
333333,
|
|
1122112221122111,
|
|
1000001122102010,
|
|
02102010,
|
|
1000001122102011,
|
|
2210201020002000,
|
|
2212201022122010,
|
|
2212221222122210,
|
|
1000002211201020,
|
|
01212020,
|
|
1121102011211012,
|
|
1121112111211120,//81
|
|
|
|
#GOGOEND
|
|
1000100210102012,
|
|
2210201222102010,
|
|
1000200210102030,
|
|
03230300,
|
|
,
|
|
000022200000,
|
|
|
|
|
|
#END
|
|
|
|
|
|
COURSE:Hard
|
|
LEVEL:6
|
|
SCOREINIT:500
|
|
SCOREDIFF:125
|
|
|
|
#START
|
|
#MEASURE 2/4
|
|
,
|
|
#MEASURE 4/4
|
|
1000200220200050,
|
|
000008000000000000100000000000100000000000000000,
|
|
500000000008000000000000100000100000000000100000,
|
|
01010100,
|
|
10201121,
|
|
0020200022202000,
|
|
10201121,
|
|
0020202202202000,
|
|
10201121,
|
|
0020200022202000,
|
|
10201121,
|
|
0020200022202000,
|
|
2000002220200010,
|
|
0010200011102000,
|
|
10201221,
|
|
0010201101102000,
|
|
10201221,
|
|
0010200011102000,
|
|
10201220,
|
|
500000000008000000000000500000000008000000000000,
|
|
10012010,
|
|
2022201020001000,
|
|
10012010,
|
|
2022201020001000,
|
|
10012002,
|
|
10012002,
|
|
1000202220100010,
|
|
0000202220100050,
|
|
000000000000000000000008000000000000200000100000,//30
|
|
|
|
#GOGOSTART
|
|
1010201110102010,
|
|
1010201110102010,
|
|
10211220,
|
|
10211021,
|
|
1020201110202010,
|
|
1020201110202010,
|
|
10201221,
|
|
10211020,//38
|
|
|
|
#GOGOEND
|
|
500000000008000000000000100000000000000000000000,
|
|
500000000008000000000000100000000000100000000000,
|
|
500000000008000000000000100000000000000000000000,
|
|
500000000000000000000008000000000000100000000000,
|
|
1000200220101000,
|
|
1000100220102000,
|
|
30303021,//45
|
|
|
|
#GOGOSTART
|
|
1010201110102010,
|
|
1010201110102010,
|
|
1000201110202000,
|
|
1000201110202010,
|
|
1020201110202010,
|
|
1020201110202010,
|
|
11201120,
|
|
2220222022202050,
|
|
000000000000000000000008000000000000200000500000,
|
|
000000000000000000000008000000000000200000000000,
|
|
10012002,
|
|
12012020,
|
|
21212121,
|
|
2010102011102220,//59
|
|
|
|
#GOGOEND
|
|
1000200220200010,
|
|
01010110,
|
|
1000200220200010,
|
|
01010000,//63
|
|
|
|
#GOGOSTART
|
|
6,
|
|
000000000008000000000000200200200000200200200000,
|
|
1000201110202000,
|
|
1000201110002010,
|
|
1020201110202010,
|
|
1020201110202000,
|
|
333333,
|
|
2022202220202050,
|
|
000000000000000008000000200000100000200000100000,
|
|
12012010,
|
|
10012020,
|
|
12012010,
|
|
21211212,
|
|
2220111022202020,
|
|
500000000008000000100000200000000000100000100000,
|
|
02012020,
|
|
21212121,
|
|
2220111022202020,//81
|
|
|
|
#GOGOEND
|
|
1000200220200050,
|
|
000000000008000000100000000000100000000000000000,
|
|
500000000008000000000000100000100000000000100000,
|
|
01010500,
|
|
,
|
|
000800000000000020002000200000000000000000000000,
|
|
,
|
|
#END
|
|
|
|
COURSE:Normal
|
|
LEVEL:4
|
|
BALLOON:9,9,9,9,9,9,16
|
|
SCOREINIT:720
|
|
SCOREDIFF:180
|
|
|
|
#START
|
|
#MEASURE 2/4
|
|
,
|
|
#MEASURE 4/4
|
|
10101005,
|
|
000000000000000000000008000000000000000000000000,
|
|
10001005,
|
|
000000000000000000000008000000000000000000000000,
|
|
10001105,
|
|
000000000008000000000000100000000000100000000000,
|
|
10101005,
|
|
000000000000000000000008000000000000000000000000,
|
|
500000000008000000000000100000100000000000100000,
|
|
0111,
|
|
10101005,
|
|
000000000000000000000008000000000000000000000000,
|
|
20002202,
|
|
0011,
|
|
10101101,
|
|
00010010,
|
|
500000000008000000000000100000100000000000100000,
|
|
0111,
|
|
1111,
|
|
500000000008000000000000500000000008000000000000,
|
|
1002,
|
|
22020020,
|
|
2002,
|
|
20220020,
|
|
22,
|
|
22,
|
|
10110105,
|
|
000008000000100000100000000000100000000000100000,
|
|
500000000000000000000008000000000000100000100000,//30
|
|
|
|
#GOGOSTART
|
|
00110011,
|
|
00110011,
|
|
00200220,
|
|
00200011,
|
|
00110011,
|
|
00110011,
|
|
00200220,
|
|
2220,//38
|
|
|
|
#GOGOEND
|
|
7,
|
|
8,
|
|
7,
|
|
8,
|
|
500000000000000000000008000000000000100000000000,
|
|
1111,
|
|
30303011,//45
|
|
|
|
#GOGOSTART
|
|
00110011,
|
|
00110011,
|
|
00200220,
|
|
00200011,
|
|
00110011,
|
|
00110010,
|
|
500000000008000000000000500000000008000000000000,
|
|
2220,
|
|
7,
|
|
8,
|
|
7,
|
|
8,
|
|
3333,
|
|
300000000000300000000000600000000008000000000000,//59
|
|
|
|
#GOGOEND
|
|
30101105,
|
|
000000000000000000000008000000000000000000000000,
|
|
10101105,
|
|
000000000000000000000008000000000000100000100000,//63
|
|
|
|
#GOGOSTART
|
|
00110011,
|
|
00110011,
|
|
00200220,
|
|
00200011,
|
|
00110011,
|
|
00110010,
|
|
500000000008000000000000500000000008000000000000,
|
|
2222,
|
|
7,
|
|
8,
|
|
7,
|
|
8,
|
|
3333,
|
|
3333,
|
|
600000000000000000000008000000000000100000100000,
|
|
0001,
|
|
3333,
|
|
3333,//81
|
|
|
|
#GOGOEND
|
|
10101105,
|
|
000000000000000000000008000000000000000000000000,
|
|
10001101,
|
|
01010700,
|
|
,
|
|
8,
|
|
,
|
|
#END
|
|
|
|
COURSE:Easy
|
|
LEVEL:4
|
|
BALLOON:3,3,3,3
|
|
SCOREINIT:510
|
|
SCOREDIFF:130
|
|
|
|
#START
|
|
#MEASURE 2/4
|
|
,
|
|
#MEASURE 4/4
|
|
10001005,
|
|
000000000000000000000008000000000000000000000000,
|
|
10001005,
|
|
000000000000000000000008000000000000000000000000,
|
|
10001001,
|
|
0011,
|
|
10001001,
|
|
0011,
|
|
10001001,
|
|
0011,
|
|
10001001,
|
|
01,
|
|
20002002,
|
|
0011,
|
|
10001001,
|
|
0011,
|
|
10001001,
|
|
01,
|
|
1110,
|
|
500000000000000000000000000000000008000000000000,
|
|
3002,
|
|
20020020,
|
|
2002,
|
|
20020020,
|
|
22,
|
|
22,
|
|
10010100,
|
|
10010100,
|
|
500000000000000000000008000000000000000000000000,//30
|
|
|
|
#GOGOSTART
|
|
10011000,
|
|
10011000,
|
|
10011000,
|
|
10011000,
|
|
20022000,
|
|
20022000,
|
|
20022000,
|
|
2220,//38
|
|
|
|
#GOGOEND
|
|
11,
|
|
1011,
|
|
11,
|
|
1,
|
|
500000000000000000000008000000000000100000000000,
|
|
1111,
|
|
3330,//45
|
|
|
|
#GOGOSTART
|
|
10011000,
|
|
10011000,
|
|
20022000,
|
|
20022000,
|
|
10011000,
|
|
20022000,
|
|
33,
|
|
600000000000000000000000000000000008000000000000,
|
|
10011000,
|
|
10011000,
|
|
20022000,
|
|
20022000,
|
|
3333,
|
|
300000000000300000000000600000000008000000000000,//59
|
|
|
|
#GOGOEND
|
|
30001005,
|
|
000000000000000000000008000000000000000000000000,
|
|
10001005,
|
|
000000000000000000000008000000000000000000000000,//63
|
|
|
|
#GOGOSTART
|
|
3,
|
|
300000000000000000000000600000000008000000000000,
|
|
10011000,
|
|
10011000,
|
|
20022000,
|
|
20022000,
|
|
500000000008000000000000500000000008000000000000,
|
|
1110,
|
|
78,
|
|
78,
|
|
78,
|
|
78,
|
|
3333,
|
|
3333,
|
|
600000000000000000000000000000000000000000000008,
|
|
,
|
|
3333,
|
|
3333,//81
|
|
|
|
#GOGOEND
|
|
10001005,
|
|
000000000000000000000008000000000000000000000000,
|
|
10001001,
|
|
00000600,
|
|
,
|
|
000000000000000000000008000000000000000000000000,
|
|
,
|
|
#END |