Files
TJA-by-song-no/tja/701.tja
2026-03-04 23:59:27 +09:00

494 lines
5.8 KiB
Plaintext

//TJADB Project
TITLE:Tsunagare! Hirogare! Uchiagare!
TITLEJA:つながれ!ひろがれ!打ち上がれ!
SUBTITLE:--Toaki Usami feat. MANA
SUBTITLEJA:「太鼓の達人 セッションでドドンがドン!」テーマソング
BPM:150
WAVE:Tsunagare! Hirogare! Uchiagare!.ogg
OFFSET:-1.833
DEMOSTART:56.018
//shinuchi: 3440/2470/1780/1190
COURSE:Oni
LEVEL:9
BALLOON:33,40
SCOREINIT:410,1280
SCOREDIFF:100
#START
1021102010211020,
1021102010002210,
2000401210212012,
2010002000201111,
2022102210221021,
1022102210222021,
1022102210201120,
0020112210101000, //8
1010221010201020,
1012201010201020,
1010221010201020,
100100200000100100200000202020202020200000200000,
1010221010201020,
100000100200200000100000100000200000100000202020,
1010221010201020,
1120112010202220, //16
1011201020102010,
1011201020112000,
1011201120112010,
100000100000100100200000202020202020200000200000,
1011201020102011,
1011201120102012,
1011011011202011,
100000100100100100101010100000200000100000101010, //24
11212021,
2010201020102110,
2101201020102020,
300000003000000030000000300000200200100100100100,
1020102111201021,
1020102110221110,
44,
4343,
7,
000000000000000000000000000000080000000000000000, //34
#GOGOSTART
1201102012012010,
1201102012012020,
3000300030221020,
02023304,
3022202010212020,
1022202010212020,
1020201210212010,
1020201210221120, //42
1201102012012010,
1201102012012020,
3000300030222030,
0030004000221212,
1021202010212020,
1021202211221111,
#GOGOEND
2000000000000001,
1010002000112222,
15000000,
000000000008000000000000000000000000000000000000, //52
1022102210221122,
1022102210221212,
1022102210221122,
1022102210121000,
1022122210221122,
1022122210221212,
1022122210221122,
1022122210121000,
30012000,
1000001020002211,
1010001020112222,
1010222211112000, //64
#GOGOSTART
1211102012112010,
1221102012112020,
3000300030221020,
02023304,
3022202010212020,
1022202010212020,
1020201210212010,
1020201210221120, //72
1211102012112010,
1221102012112020,
3000300030222030,
0030004000221212,
1021202010212020,
1021202211221111,
#GOGOEND
2000000000000001,
1010002000221111, //80
2021102010211020,
1021102010002210,
2000401210212012,
2010002000221270,
0,
0,
8, //87
#END
COURSE:Hard
LEVEL:7
BALLOON:20
SCOREINIT:490,2120
SCOREDIFF:120
#START
1011101010111010,
0011101010001110,
3000001110111010,
01010200,
1011101110111000,
1011101110222000,
1011101110102220,
0020111020101000, //8
1011101010201000,
1011101010201000,
1011101010201000,
12212000,
1011101020201000,
1011101020201000,
1011101020201000,
12112000, //16
1011102010202000,
1011101020222000,
1011101110111010,
1010110030000000,
1011101020102000,
1011101110202000,
11211212,
1001102030000000, //24
11212021,
22220120,
1001101020102010,
333300,
12212020,
12212020,
44,
4343,
7,
000000000000000000000000000000080000000000100000, //34
#GOGOSTART
1001101010011010,
1001101020002000,
30303002,
02023304,
30001221,
12221222,
30033004,
30033001, //42
1001102010011020,
1001102010002000,
30303003,
03040000,
00011221,
01120110,
#GOGOEND
2000000000000001,
13030333,
06000000,
000000000008000000000000000000000000000000000000, //52
30302230,
30333040,
21212211,
3000300020222000,
30223022,
11113040,
21211111,
3000300010222000,
30012000,
10012000,
5,
000000000008000000000000000000000000000000100000, //64
#GOGOSTART
1001101010011010,
1001101020002000,
30303002,
02023304,
30001221,
12221222,
30033004,
30033001, //72
1001102010011020,
1001102010002000,
30303003,
03040000,
00011221,
01120110,
#GOGOEND
2000000000000001,
13030333, //80
06000000,
000000000000000000000008000000000000000000000000,
2000401110111010,
12020205,
0,
000000000000000000000000000000000000000000000008,
0, //87
#END
COURSE:Normal
LEVEL:5
BALLOON:8,16
SCOREINIT:470,3150
SCOREDIFF:118
#START
10101011,
00111010,
3,
02020200,
10101011,
10101011,
10101011,
0, //8
10111010,
11011001,
10111010,
11011000,
10111010,
11011001,
10111010,
11011000, //16
10102220,
10102220,
1212,
7008,
10102220,
10102220,
11011020,
3330, //24
1022,
1022,
1212,
600000000000000000000008000000000000000000000000,
11102020,
11102020,
44,
4343,
7,
000000000000000000000000000000080000000000000000, //34
#GOGOSTART
10112020,
10112020,
30303002,
02023303,
30001110,
11101111,
30033003,
30033000, //42
10112020,
10112020,
30303003,
03030000,
00011111,
01110110,
#GOGOEND
2,
03030333,
06000000,
000000000008000000000000000000000000000000000000, //52
3343,
30333000,
22202220,
30302220,
3232,
11013000,
22201110,
30301210,
30012000,
10012000,
5,
000000000008000000000000000000000000000000000000, //64
#GOGOSTART
10112020,
10112020,
30303002,
02023303,
30001110,
11101111,
30033003,
30033000, //72
10112020,
10112020,
30303003,
03030000,
00011111,
01110110,
#GOGOEND
2,
03030333, //80
06000000,
000000000000000000000008000000000000000000000000,
20401011,
02020205,
0,
000000000000000000000000000000000000000000000008,
0, //87
#END
COURSE:Easy
LEVEL:4
BALLOON:5,12
SCOREINIT:390,4750
SCOREDIFF:105
#START
1110,
1110,
3,
02020200,
11,
1110,
10001003,
0, //8
10010000,
10010000,
10010000,
20020000,
10010000,
10010000,
10010000,
20020000, //16
1120,
1120,
1122,
7008,
1022,
1022,
1012,
3330, //24
12,
12,
12,
600000000000000000000008000000000000000000000000,
1120,
1120,
44,
0343,
7,
000000000000000000000000000000080000000000000000, //34
#GOGOSTART
1110,
1110,
3330,
00003303,
3011,
1011,
30033003,
30033000, //42
1110,
1110,
30303003,
03030000,
1202,
0202,
#GOGOEND
2,
03030333,
06000000,
000000000008000000000000000000000000000000000000, //52
1111,
3330,
2222,
3322,
3232,
13,
2211,
3322,
30022000,
10022000,
5,
000000000008000000000000000000000000000000000000, //64
#GOGOSTART
1110,
1110,
3330,
00003303,
3011,
1011,
30033003,
30033000, //72
1120,
1120,
30303003,
03030000,
1202,
0201,
#GOGOEND
2,
03030333, //80
06000000,
000000000000000000000008000000000000000000000000,
2400,
02020205,
0,
000000000000000000000000000000000000000000000008,
0, //87
#END