553 lines
6.1 KiB
Plaintext
553 lines
6.1 KiB
Plaintext
//TJADB Project
|
|
TITLE:KARMA -Tatsujin Mix-
|
|
TITLEJA:KARMA(Tatsujin Mix)
|
|
SUBTITLE:--AJURIKA/TEKKEN 6 BLOODLINE REBELLION
|
|
BPM:145
|
|
WAVE:KARMA -Tatsujin Mix-.ogg
|
|
OFFSET:-1.827
|
|
DEMOSTART:68.027
|
|
|
|
COURSE:Oni
|
|
LEVEL:9
|
|
SCOREINIT:340
|
|
SCOREDIFF:88
|
|
|
|
|
|
#START
|
|
|
|
|
|
#GOGOSTART
|
|
1001201112112010,
|
|
1001201112112010,
|
|
1001201112112010,
|
|
1221221040004000,
|
|
1001201112112010,
|
|
1001201112112010,
|
|
1001201112112000,
|
|
|
|
#GOGOEND
|
|
3,
|
|
|
|
#GOGOSTART
|
|
3011101112011020,
|
|
1011101112011020,
|
|
1021121120304000,
|
|
|
|
#GOGOEND
|
|
3000003003003040,
|
|
|
|
#GOGOSTART
|
|
3012212201111020,
|
|
1012212201111020,
|
|
1221221010211020,
|
|
|
|
#GOGOEND
|
|
3004003004003040,
|
|
|
|
#GOGOSTART
|
|
3011101112011020,
|
|
1011101112011020,
|
|
1021121120403000,
|
|
|
|
#GOGOEND
|
|
30303344,
|
|
|
|
#GOGOSTART
|
|
3012212201111020,
|
|
1012212201111020,
|
|
1221221010211020,
|
|
|
|
#GOGOEND
|
|
3021021021021040,
|
|
#BPMCHANGE 145.9
|
|
3020200220220220,
|
|
#BPMCHANGE 144.94
|
|
1020200220220220,
|
|
1020200020020020,
|
|
1020200020020020,
|
|
1222,
|
|
1222,
|
|
1202,
|
|
#BPMCHANGE 144.49
|
|
1202,
|
|
#BPMCHANGE 145
|
|
3022022022022010,
|
|
1022022022011020,
|
|
3022022022022010,
|
|
1022022022011020,
|
|
3022022030220220,
|
|
3022022030220220,
|
|
#BPMCHANGE 145.22
|
|
1222122212121212,
|
|
#BPMCHANGE 144.76
|
|
1004004000000000,
|
|
|
|
#GOGOSTART
|
|
#BPMCHANGE 145
|
|
3021021011111020,
|
|
3021021011111020,
|
|
3021021011111020,
|
|
3003004004003040,
|
|
3021021011112010,
|
|
3021021011112010,
|
|
3021021011112010,
|
|
3003004004003040,
|
|
3021021012221020,
|
|
3021021012221020,
|
|
3021021012221020,
|
|
3004003004003040,
|
|
3021021021112010,
|
|
3021021021112010,
|
|
3021021021112222,
|
|
1004003004003040,
|
|
|
|
#GOGOEND
|
|
#SCROLL 1.05
|
|
3011102021121120,
|
|
1011102021121120,
|
|
1011102021121120,
|
|
1120102011201020,
|
|
#SCROLL 1.1
|
|
1021102012212210,
|
|
1021102012212210,
|
|
1021102012212210,
|
|
1021102010211020,
|
|
#SCROLL 1.15
|
|
1011102021112110,
|
|
1011102021112110,
|
|
1011102021112110,
|
|
1120102011201020,
|
|
#SCROLL 1.2
|
|
1021102012221220,
|
|
1021102012221220,
|
|
1021102012221220,
|
|
1021102010211020,
|
|
#SCROLL 1.25
|
|
1011202112112120,
|
|
1021102112112120,
|
|
1011202112112120,
|
|
1021101121101120,
|
|
1111222211112222,
|
|
1111222211221122,
|
|
1122112212121212,
|
|
101010101010100100100100101010101010100100100100,
|
|
|
|
#GOGOSTART
|
|
1001201112112010,
|
|
1001201112112010,
|
|
2111211121112111,
|
|
2121212121211111,
|
|
|
|
#GOGOEND
|
|
|
|
|
|
#END
|
|
|
|
|
|
COURSE:Hard
|
|
LEVEL:8
|
|
BALLOON:35,40,45,50
|
|
SCOREINIT:450
|
|
SCOREDIFF:100
|
|
|
|
|
|
#START
|
|
|
|
|
|
#GOGOSTART
|
|
1001201110111000,
|
|
1001201110111000,
|
|
1001201110111000,
|
|
3003003040004000,
|
|
1002201110111000,
|
|
1002201110111000,
|
|
1002201110111000,
|
|
|
|
#GOGOEND
|
|
3,
|
|
|
|
#GOGOSTART
|
|
3001101110102000,
|
|
1001101110102000,
|
|
1001101110102000,
|
|
|
|
#GOGOEND
|
|
3000003003003000,//12
|
|
|
|
#GOGOSTART
|
|
3002201110201000,
|
|
1002201110201000,
|
|
1002201110201000,//15
|
|
|
|
#GOGOEND
|
|
3000004004004000,//16
|
|
|
|
#GOGOSTART
|
|
3001101110102000,
|
|
1001101110102000,
|
|
1001101110102000,//19
|
|
|
|
#GOGOEND
|
|
300000000000300000000000600000000000000008000000,//20
|
|
|
|
#GOGOSTART
|
|
3002201110201000,
|
|
1002201110201000,
|
|
1002201110201000,//23
|
|
|
|
#GOGOEND
|
|
300000000300000000300000600000000000000008000000,
|
|
#BPMCHANGE 145.9
|
|
3020200020020020,
|
|
#BPMCHANGE 144.94
|
|
0020200020020020,
|
|
0000200020020020,
|
|
0000200020020020,
|
|
0222,
|
|
2220,
|
|
22,
|
|
#BPMCHANGE 144.49
|
|
22,
|
|
#BPMCHANGE 145
|
|
3002002000002000,
|
|
1002002000002000,
|
|
1002002000002000,
|
|
1002002000002000,
|
|
3002002030020020,
|
|
3002002030020020,
|
|
#BPMCHANGE 145.22
|
|
600000000000000000000000000000000000000008000000,
|
|
#BPMCHANGE 144.76
|
|
30030000,//40
|
|
|
|
#BPMCHANGE 145
|
|
#GOGOSTART
|
|
3011011011101010,
|
|
3011011011101010,
|
|
3011011011101010,
|
|
300000000300000000400000000400000000600008000000,
|
|
3011011011102020,
|
|
3011011011102020,
|
|
3011011011102020,
|
|
300000000300000000400000000400000000600008000000,
|
|
3011011011101020,
|
|
3011011011101020,
|
|
3011011011101020,
|
|
300000000400000000300000000400000000600008000000,
|
|
3011011011102010,
|
|
3011011011102010,
|
|
300000100100000100100000100100100000500008000000,
|
|
300000000400000000300000000400000000600008000000,//56
|
|
|
|
#GOGOEND
|
|
#SCROLL 1.25
|
|
9,
|
|
,
|
|
0900,
|
|
8,
|
|
#SCROLL 1.5
|
|
9,
|
|
,
|
|
0900,
|
|
8,
|
|
#SCROLL 1.75
|
|
9,
|
|
,
|
|
0900,
|
|
8,
|
|
#SCROLL 2
|
|
9,
|
|
,
|
|
0900,
|
|
8,
|
|
#SCROLL 1
|
|
3001101110102020,
|
|
1001102010201000,
|
|
3001101110102020,
|
|
1001102010201000,
|
|
1011101110222011,
|
|
1011101110222011,
|
|
1011101110111110,
|
|
100100100100100100100000600000000000000008000000,//80
|
|
|
|
#GOGOSTART
|
|
3002201110201020,
|
|
1002201110201020,
|
|
1011101110111110,
|
|
300000300000300000300000300000300000600008000000,//84
|
|
|
|
#GOGOEND
|
|
,
|
|
,
|
|
,
|
|
#END
|
|
|
|
COURSE:Normal
|
|
LEVEL:6
|
|
BALLOON:20,25,30,35
|
|
SCOREINIT:570
|
|
SCOREDIFF:160
|
|
|
|
#START
|
|
#GOGOSTART
|
|
1211,
|
|
1211,
|
|
1211,
|
|
12,
|
|
1211,
|
|
1211,
|
|
1211,//7
|
|
|
|
#GOGOEND
|
|
1,//8
|
|
|
|
#GOGOSTART
|
|
30101110,
|
|
10101110,
|
|
10101110,//11
|
|
|
|
#GOGOEND
|
|
3,//12
|
|
|
|
#GOGOSTART
|
|
30201011,
|
|
10201011,
|
|
10102011,//15
|
|
|
|
#GOGOEND
|
|
3,//16
|
|
|
|
#GOGOSTART
|
|
30101110,
|
|
10101110,
|
|
10101110,//19
|
|
|
|
#GOGOEND
|
|
3,//20
|
|
|
|
#GOGOSTART
|
|
30201011,
|
|
10201011,
|
|
10102011,//23
|
|
|
|
#GOGOEND
|
|
3,
|
|
#BPMCHANGE 145.9
|
|
3022,
|
|
#BPMCHANGE 144.94
|
|
2022,
|
|
2022,
|
|
2022,
|
|
22,
|
|
22,
|
|
2,
|
|
#BPMCHANGE 144.49
|
|
2,
|
|
#BPMCHANGE 145
|
|
3002,
|
|
1002,
|
|
1002,
|
|
1002,
|
|
3202,
|
|
3202,
|
|
#BPMCHANGE 145.22
|
|
600000000000000000000000000000000000000000000008,
|
|
#BPMCHANGE 144.76
|
|
,//40
|
|
|
|
#BPMCHANGE 145
|
|
#GOGOSTART
|
|
1112,
|
|
1112,
|
|
1112,
|
|
10101110,
|
|
1112,
|
|
1112,
|
|
1112,
|
|
10101110,
|
|
1212,
|
|
1211,
|
|
1212,
|
|
10201110,
|
|
1212,
|
|
1211,
|
|
1212,
|
|
1230,//56
|
|
|
|
#GOGOEND
|
|
#SCROLL 1.25
|
|
9,
|
|
,
|
|
0900,
|
|
8,
|
|
#SCROLL 1.5
|
|
9,
|
|
,
|
|
0900,
|
|
8,
|
|
#SCROLL 1.75
|
|
9,
|
|
,
|
|
0900,
|
|
8,
|
|
#SCROLL 2
|
|
9,
|
|
,
|
|
0900,
|
|
8,
|
|
#SCROLL 1
|
|
1112,
|
|
1112,
|
|
1112,
|
|
1011,
|
|
1212,
|
|
1212,
|
|
11111110,
|
|
300000300000300000300000600000000008000000000000,//80
|
|
|
|
#GOGOSTART
|
|
10201120,
|
|
10201120,
|
|
12121212,
|
|
300000300000300000300000300000300000600000000008,//84
|
|
|
|
#GOGOEND
|
|
,
|
|
,
|
|
,
|
|
#END
|
|
|
|
COURSE:Easy
|
|
LEVEL:5
|
|
BALLOON:15,20,25,30
|
|
SCOREINIT:640
|
|
SCOREDIFF:210
|
|
|
|
#START
|
|
#GOGOSTART
|
|
1011,
|
|
1011,
|
|
1011,
|
|
12,
|
|
1011,
|
|
1011,
|
|
1011,//7
|
|
|
|
#GOGOEND
|
|
1,//8
|
|
|
|
#GOGOSTART
|
|
31,
|
|
1110,
|
|
11,//11
|
|
|
|
#GOGOEND
|
|
3,//12
|
|
|
|
#GOGOSTART
|
|
32,
|
|
1110,
|
|
12,//15
|
|
|
|
#GOGOEND
|
|
3,//16
|
|
|
|
#GOGOSTART
|
|
31,
|
|
500000000000000000000008000000000000000000000000,
|
|
11,//19
|
|
|
|
#GOGOEND
|
|
3,//20
|
|
|
|
#GOGOSTART
|
|
32,
|
|
500000000000000000000008000000000000000000000000,
|
|
12,//23
|
|
|
|
#GOGOEND
|
|
3,
|
|
#BPMCHANGE 145.9
|
|
32,
|
|
#BPMCHANGE 144.94
|
|
22,
|
|
12,
|
|
22,
|
|
1,
|
|
2,
|
|
1,
|
|
#BPMCHANGE 144.49
|
|
2,
|
|
#BPMCHANGE 145
|
|
3002,
|
|
1002,
|
|
1002,
|
|
1002,
|
|
34,
|
|
34,
|
|
#BPMCHANGE 145.22
|
|
600000000000000000000000000000000000000000000008,
|
|
#BPMCHANGE 144.76
|
|
,//40
|
|
|
|
#BPMCHANGE 145
|
|
#GOGOSTART
|
|
1011,
|
|
1011,
|
|
1011,
|
|
1212,
|
|
1011,
|
|
1011,
|
|
1011,
|
|
1212,
|
|
1012,
|
|
1012,
|
|
1012,
|
|
1212,
|
|
1012,
|
|
1012,
|
|
1012,
|
|
3,//56
|
|
|
|
#GOGOEND
|
|
#SCROLL 1.25
|
|
9,
|
|
,
|
|
0900,
|
|
8,
|
|
#SCROLL 1.5
|
|
9,
|
|
,
|
|
0900,
|
|
8,
|
|
#SCROLL 1.75
|
|
9,
|
|
,
|
|
0900,
|
|
8,
|
|
#SCROLL 2
|
|
9,
|
|
,
|
|
0900,
|
|
8,
|
|
#SCROLL 1
|
|
11,
|
|
1011,
|
|
11,
|
|
1011,
|
|
1212,
|
|
1212,
|
|
1111,
|
|
300000000000300000000000600000000008000000000000,//80
|
|
|
|
#GOGOSTART
|
|
1011,
|
|
1011,
|
|
1111,
|
|
300000000000300000000000300000000000600000000008,//84
|
|
|
|
#GOGOEND
|
|
,
|
|
,
|
|
,
|
|
#END |