395 lines
4.5 KiB
Plaintext
395 lines
4.5 KiB
Plaintext
//TJADB Project
|
|
TITLE:Numujika ac.⒑
|
|
TITLEJA:ヌムジカac.10
|
|
SUBTITLE:--Masako Oogami
|
|
BPM:142
|
|
WAVE:Numujika ac.10.ogg
|
|
OFFSET:-1.868
|
|
DEMOSTART:1.868
|
|
|
|
COURSE:Oni
|
|
LEVEL:9
|
|
BALLOON:6,6,6,6,6,12,24
|
|
SCOREINIT:510
|
|
SCOREDIFF:123
|
|
|
|
|
|
#START
|
|
|
|
|
|
#GOGOSTART
|
|
1030000010010220,
|
|
1030000010010220,
|
|
1030000010010220,
|
|
1122112211222220,//4
|
|
|
|
#GOGOEND
|
|
1020002000220020,
|
|
1020002000220020,
|
|
12021202,
|
|
1020002010202220,
|
|
1000100010221020,
|
|
1000100010221020,
|
|
1022102010221020,
|
|
1110,
|
|
1020102010210120,
|
|
1020102010210120,
|
|
12121212,
|
|
1010101020202220,
|
|
1111111122222222,
|
|
1111211121212111,
|
|
2222111122112111,
|
|
2222112210000000,
|
|
3003004004003003,
|
|
0040040011110403,
|
|
0111211112020222,
|
|
0010210020220200,
|
|
1000222210030020,
|
|
1000222210030020,
|
|
1000222210030022,
|
|
2020220020101110,//28
|
|
|
|
#GOGOSTART
|
|
1202101202101202,
|
|
1012021010102111,
|
|
1202101202101202,
|
|
1012021010102111,
|
|
1030002011030000,
|
|
2222111122112222,
|
|
1030002011030220,
|
|
200200200200100100100100200000000000500008000000,
|
|
100000100000500000080000100100000100500000080000,
|
|
1101011010000000,//39
|
|
|
|
#GOGOEND
|
|
2022202210010010,
|
|
2022202210010010,
|
|
2022202210010010,
|
|
22222020,
|
|
2000200010010210,
|
|
2000200010010210,
|
|
2000200010010110,
|
|
2000200020101011,
|
|
7878,
|
|
11107080,
|
|
1001101020002020,
|
|
1010100020202222,
|
|
1001111170008000,
|
|
11107080,
|
|
70000800,
|
|
1113,
|
|
1022022011112121,
|
|
0202112002221021,
|
|
0212121212020202,
|
|
0101010104040403,
|
|
0301212211112122,
|
|
0111222212122021,
|
|
0222011102220112,
|
|
0222222220001001,//62
|
|
|
|
#GOGOSTART
|
|
1202101202101202,
|
|
1012021010102111,
|
|
1202101202101202,
|
|
1012021010102111,
|
|
1030002011030000,
|
|
2222111122112222,
|
|
1030002011030220,
|
|
13021302,
|
|
100000000000500000000000000008000000100000000000,
|
|
2222111122221111,
|
|
2211221120000000,
|
|
7,//74
|
|
|
|
#GOGOEND
|
|
8,
|
|
|
|
|
|
#END
|
|
|
|
|
|
COURSE:Hard
|
|
LEVEL:8
|
|
BALLOON:14,20
|
|
SCOREINIT:540
|
|
SCOREDIFF:130
|
|
|
|
#START
|
|
#GOGOSTART
|
|
3000000010020000,
|
|
3000000010020000,
|
|
3000000010020000,
|
|
1000000022222220,//4
|
|
|
|
#GOGOEND
|
|
1212,
|
|
10201011,
|
|
1212,
|
|
1000100010202220,
|
|
1000100010220020,
|
|
1000100010220020,
|
|
1212,
|
|
1110,
|
|
10202002,
|
|
10202002,
|
|
1212,
|
|
11112220,
|
|
1011101020222020,
|
|
1011101020222020,
|
|
1022202010222020,
|
|
1011222210000000,
|
|
3003004004003003,
|
|
0040040000000303,
|
|
0000000011010000,
|
|
1000110020220200,
|
|
1000222010010000,
|
|
1000222010010000,
|
|
1000222010010000,
|
|
2020220020000000,//28
|
|
|
|
#GOGOSTART
|
|
1101101101101101,
|
|
1011011000004000,
|
|
1101101101101101,
|
|
1011011000004000,
|
|
0030000030030000,
|
|
2022202220222020,
|
|
0030000030030000,
|
|
2022202220000000,
|
|
100000100000500008000000100100000100500008000000,
|
|
1101011010000000,//38
|
|
|
|
#GOGOEND
|
|
2000200010010000,
|
|
2000200010010000,
|
|
2000200010010000,
|
|
22222000,
|
|
2000200010010110,
|
|
2000200010010110,
|
|
2000200010010110,
|
|
2220,
|
|
500000000008000000100000500000000008000000100000,
|
|
100000100000500008000000500000000008000000100000,
|
|
1001101020002020,
|
|
11102222,
|
|
100000000000100100100100500000000008000000100000,
|
|
100000100000100000000000500000000008000000000000,
|
|
7008,
|
|
1113,
|
|
0022022010101000,
|
|
0202202001011010,
|
|
0020202011010101,
|
|
0101010104040403,
|
|
0300202220201010,
|
|
0202202220222020,
|
|
0111011101110222,
|
|
0222222220000000,//62
|
|
|
|
#GOGOSTART
|
|
1101101101102202,
|
|
2022022010101100,
|
|
1101101101102202,
|
|
2022022010101100,
|
|
0030000030030000,
|
|
2022202220222020,
|
|
0030000030030000,
|
|
03020302,
|
|
000000000000500000000000000008000000100000000000,
|
|
2022202220222022,
|
|
2022222220000000,
|
|
7,//74
|
|
|
|
#GOGOEND
|
|
8,
|
|
,
|
|
#END
|
|
|
|
COURSE:Normal
|
|
LEVEL:4
|
|
BALLOON:12,12,12,12,12
|
|
SCOREINIT:800
|
|
SCOREDIFF:200
|
|
|
|
#START
|
|
#GOGOSTART
|
|
31,
|
|
31,
|
|
31,
|
|
500000000000000000000000000000000008000000000000,//4
|
|
|
|
#GOGOEND
|
|
1120,
|
|
1120,
|
|
11,
|
|
1110,
|
|
1120,
|
|
1120,
|
|
11,
|
|
1110,
|
|
12,
|
|
12,
|
|
11,
|
|
1220,
|
|
12,
|
|
12,
|
|
12,
|
|
2220,
|
|
5,
|
|
000000000000000000000008000000000000000000000000,
|
|
02,
|
|
2220,
|
|
1000000010010000,
|
|
1000000010010000,
|
|
1000000010010000,
|
|
2220,//28
|
|
|
|
#GOGOSTART
|
|
7,
|
|
8011,
|
|
7,
|
|
8011,
|
|
33,
|
|
20202220,
|
|
33,
|
|
20222000,
|
|
5,
|
|
000000000000000000000008000000000000000000000000,//39
|
|
|
|
#GOGOEND
|
|
2210,
|
|
2210,
|
|
2210,
|
|
22202000,
|
|
2220,
|
|
2220,
|
|
2220,
|
|
2220,
|
|
11,
|
|
11101000,
|
|
1110,
|
|
11102220,
|
|
1110,
|
|
11101000,
|
|
10111010,
|
|
1003,
|
|
10022020,
|
|
10022020,
|
|
10022020,
|
|
11,
|
|
10002220,
|
|
10002220,
|
|
12,
|
|
2220,//62
|
|
|
|
#GOGOSTART
|
|
7,
|
|
8011,
|
|
7,
|
|
8011,
|
|
33,
|
|
20222020,
|
|
33,
|
|
11001100,
|
|
1301,
|
|
20222022,
|
|
22222000,
|
|
9009,
|
|
8,
|
|
,
|
|
#END
|
|
|
|
COURSE:Easy
|
|
LEVEL:3
|
|
BALLOON:8,8,8,8,8
|
|
SCOREINIT:630
|
|
SCOREDIFF:160
|
|
|
|
#START
|
|
#GOGOSTART
|
|
3,
|
|
3,
|
|
3,
|
|
500000000000000000000000000008000000000000000000,//4
|
|
|
|
#GOGOEND
|
|
11,
|
|
12,
|
|
11,
|
|
1110,
|
|
11,
|
|
12,
|
|
11,
|
|
1110,
|
|
1110,
|
|
1110,
|
|
11,
|
|
1110,
|
|
1110,
|
|
1110,
|
|
11,
|
|
1110,
|
|
5,
|
|
000000000000000000000008000000000000000000000000,
|
|
02,
|
|
22,
|
|
12,
|
|
12,
|
|
12,
|
|
2220,//28
|
|
|
|
#GOGOSTART
|
|
7,
|
|
8,
|
|
7,
|
|
8,
|
|
33,
|
|
2220,
|
|
33,
|
|
2220,
|
|
5,
|
|
000000000000000000000008000000000000000000000000,//39
|
|
|
|
#GOGOEND
|
|
21,
|
|
21,
|
|
21,
|
|
2220,
|
|
2220,
|
|
2220,
|
|
2220,
|
|
22,
|
|
11,
|
|
1110,
|
|
11,
|
|
1122,
|
|
11,
|
|
1110,
|
|
11,
|
|
1003,
|
|
0222,
|
|
0222,
|
|
0202,
|
|
0202,
|
|
0222,
|
|
0222,
|
|
0202,
|
|
0220,//62
|
|
|
|
#GOGOSTART
|
|
7,
|
|
8,
|
|
7,
|
|
8,
|
|
33,
|
|
2220,
|
|
33,
|
|
11001100,
|
|
1300,
|
|
2222,
|
|
2220,
|
|
9009,//74
|
|
|
|
#GOGOEND
|
|
8,
|
|
,
|
|
#END |