326 lines
3.8 KiB
Plaintext
326 lines
3.8 KiB
Plaintext
//TJADB Project
|
|
TITLE:Synchronicity
|
|
TITLEJA:シンクロニシティ
|
|
SUBTITLE:--Nogizaka46/Haru Ichiban ni Nare.
|
|
SUBTITLEJA:
|
|
BPM:136
|
|
WAVE:Synchronicity.ogg
|
|
OFFSET:-1.939
|
|
DEMOSTART:71.141
|
|
|
|
COURSE:Oni
|
|
LEVEL:7
|
|
BALLOON:20
|
|
SCOREINIT:660
|
|
SCOREDIFF:150
|
|
|
|
|
|
#START
|
|
|
|
|
|
,
|
|
,
|
|
,
|
|
,
|
|
10101122,
|
|
1,
|
|
10101122,
|
|
1000000000222020,
|
|
1000000000222020,
|
|
10001125,
|
|
000000000000000008000000000000000000000000000000,
|
|
,
|
|
1020102210201022,
|
|
12121222,
|
|
1020102210201022,
|
|
1020102010222020,
|
|
1010200010222020,
|
|
11201125,
|
|
000000000000000008000000000000000000000000000000,
|
|
0000002000200022,
|
|
1430,
|
|
4434,
|
|
600000000000000000000000000000000000000008000000,
|
|
1022102210221122,
|
|
1430,
|
|
4434,
|
|
600000000000000000000000000000000000000008000000,
|
|
1022102210222220,
|
|
1020102210201022,
|
|
12121222,
|
|
1020102210201022,
|
|
1,
|
|
1110102210201022,
|
|
1110102010201022,
|
|
1110102210201022,
|
|
10000022,
|
|
1022201022201022,
|
|
2010222011221070,
|
|
00000008,
|
|
0444,
|
|
|
|
#GOGOSTART
|
|
1011202010112020,
|
|
1011221010222000,
|
|
1011202210112022,
|
|
1011201010201122,
|
|
1001202210102211,
|
|
1001202210102011,
|
|
2010201120102011,
|
|
1444,
|
|
1011202010112020,
|
|
1011221010222000,
|
|
1011202210112022,
|
|
1011201010201122,
|
|
1001202210102211,
|
|
1001202210102011,
|
|
2010201120102050,
|
|
000000000000000008000000100000200200100100200200,
|
|
1430,
|
|
4434,
|
|
600000000000000000000000000000000000000008000000,
|
|
1022102210221122,
|
|
1430,
|
|
4434,
|
|
600000000000000000000000000000000000000008000000,
|
|
1022102210222222,
|
|
|
|
#GOGOEND
|
|
1,
|
|
|
|
|
|
#END
|
|
|
|
|
|
COURSE:Hard
|
|
LEVEL:5
|
|
BALLOON:15
|
|
SCOREINIT:710
|
|
SCOREDIFF:210
|
|
|
|
|
|
#START
|
|
|
|
|
|
,
|
|
,
|
|
,
|
|
,
|
|
10101120,
|
|
1,
|
|
10101120,
|
|
10000222,
|
|
10000222,
|
|
15,
|
|
000000000000000008000000000000000000000000000000,
|
|
,
|
|
10101122,
|
|
10101122,
|
|
10101122,
|
|
10101222,
|
|
10201222,
|
|
1250,
|
|
000000000000000008000000000000000000000000000000,
|
|
00020202,
|
|
0330,
|
|
3334,
|
|
600000000000000000000000000000000000000008000000,
|
|
00020202,
|
|
0330,
|
|
3334,
|
|
600000000000000000000000000000000000000008000000,
|
|
,
|
|
10101122,
|
|
10101222,
|
|
10101122,
|
|
1,
|
|
10101122,
|
|
10101222,
|
|
10101122,
|
|
1,
|
|
11022011,
|
|
01122117,
|
|
,
|
|
8444,//40
|
|
|
|
#GOGOSTART
|
|
1011100010111000,
|
|
1011101020000000,
|
|
1011100010111000,
|
|
2022202020000000,
|
|
1000201110000000,
|
|
1000201110000000,
|
|
11221122,
|
|
1444,
|
|
1011100010111000,
|
|
1011101020000000,
|
|
1011100010111000,
|
|
2022202020000000,
|
|
1000201110000000,
|
|
1000201110000000,
|
|
11221122,
|
|
10000222,
|
|
0330,
|
|
3334,
|
|
600000000000000000000000000000000000000008000000,
|
|
00000222,
|
|
0330,
|
|
3334,
|
|
600000000000000000000000000000000000000008000000,
|
|
,//64
|
|
|
|
#GOGOEND
|
|
,
|
|
#END
|
|
|
|
COURSE:Normal
|
|
LEVEL:3
|
|
BALLOON:24,31,28,29,33
|
|
|
|
#START
|
|
,
|
|
,
|
|
,
|
|
,
|
|
11,
|
|
1,
|
|
11,
|
|
1,
|
|
2,
|
|
25,
|
|
000000000000000008000000000000000000000000000000,
|
|
,
|
|
1111,
|
|
10101110,
|
|
1111,
|
|
10101110,
|
|
10101110,
|
|
2250,
|
|
000000000000000008000000000000000000000000000000,
|
|
00030309,
|
|
,
|
|
0009,
|
|
08,
|
|
00030309,
|
|
,
|
|
,
|
|
0900,
|
|
8,
|
|
1111,
|
|
10101110,
|
|
1111,
|
|
2,
|
|
10101110,
|
|
10101110,
|
|
10101110,
|
|
2,
|
|
7,
|
|
,
|
|
,
|
|
8444,//40
|
|
|
|
#GOGOSTART
|
|
1122,
|
|
10111000,
|
|
1122,
|
|
10111000,
|
|
10111000,
|
|
20222000,
|
|
500000000000000000000000000000000000000000000008,
|
|
0444,
|
|
1122,
|
|
10111000,
|
|
1122,
|
|
10111000,
|
|
10111000,
|
|
20222000,
|
|
5,
|
|
000000000000000008000000000000900000000000000000,
|
|
,
|
|
0009,
|
|
08,
|
|
00000900,
|
|
,
|
|
,
|
|
0900,
|
|
8,//64
|
|
|
|
#GOGOEND
|
|
,
|
|
#END
|
|
|
|
COURSE:Easy
|
|
LEVEL:2
|
|
BALLOON:20,25,22,24,27
|
|
|
|
#START
|
|
,
|
|
,
|
|
,
|
|
,
|
|
11,
|
|
1,
|
|
11,
|
|
1,
|
|
2,
|
|
25,
|
|
000000000000000008000000000000000000000000000000,
|
|
,
|
|
11,
|
|
1,
|
|
11,
|
|
1,
|
|
2,
|
|
25,
|
|
000000000000000008000000000000000000000000000000,
|
|
00030309,
|
|
,
|
|
0009,
|
|
08,
|
|
00030309,
|
|
,
|
|
,
|
|
0900,
|
|
8,
|
|
11,
|
|
1,
|
|
11,
|
|
2,
|
|
11,
|
|
1,
|
|
11,
|
|
2,
|
|
7,
|
|
,
|
|
,
|
|
8111,//40
|
|
|
|
#GOGOSTART
|
|
33,
|
|
33,
|
|
33,
|
|
500000000000000000000000000008000000000000000000,
|
|
33,
|
|
44,
|
|
500000000000000000000000000000000000000008000000,
|
|
0111,
|
|
33,
|
|
33,
|
|
33,
|
|
500000000000000000000000000008000000000000000000,
|
|
33,
|
|
44,
|
|
5,
|
|
000000000000000008000000000000900000000000000000,
|
|
,
|
|
0009,
|
|
08,
|
|
00000900,
|
|
,
|
|
,
|
|
0900,
|
|
8,//64
|
|
|
|
#GOGOEND
|
|
,
|
|
#END |