Files
TJA-by-song-no/tja/84.tja
2026-03-07 15:37:31 +09:00

1571 lines
18 KiB
Plaintext

//TJADB Project
TITLE:Carmen Prelude
TITLEJA:カルメン組曲一番終曲
SUBTITLE:--Georges Bizet
SUBTITLEJA:ビゼー
BPM:120.26
WAVE:Carmen Prelude.ogg
OFFSET:-2.031
DEMOSTART:2.031
COURSE:Edit
LEVEL:10
SCOREINIT:380
SCOREDIFF:88
#START
#GOGOSTART
1012112110211211,
#BPMCHANGE 119
200000100100200100100200111111111111111111100100,
#BPMCHANGE 120
2021221220122122,
100000200200100000200200111111111111111111200200,
1012112110211211,
#BPMCHANGE 120.69
200000100100200100100200111111111111111111100100,
#BPMCHANGE 119.94
2021221220122122,
#BPMCHANGE 118.83
#SCROLL 1.01
111100200200111100200200111100100100200000000000,
#BPMCHANGE 120.06
#SCROLL 1
#GOGOEND
200000100000100000200000111100100100200200200000,
100000200000200000100000222200200200100100100200,
200000100000100000200000111100100100200200200000,
100000200000200000100000222200100100200000000000,
#BPMCHANGE 118.34
2120122011201210,
#BPMCHANGE 122.22
#SCROLL 0.97
500008000000200000101010500008000000200000000000,
#BPMCHANGE 119.94
#SCROLL 0.99
2120122011201210,
110100100100110100100100110100100100110100100100,
#BPMCHANGE 120.57
#SCROLL 1
110100110100110100110100110110110110110110200200,
#BPMCHANGE 120
#GOGOSTART
1012112110211211,
200000100100200100100200111111111111111111100100,
2021221220122122,
100000200200100000200200111111111111111111200200,
1012112110211211,
200000100100200100100200111111111111111111100100,
2021221220122122,
#BPMCHANGE 118.86
111100200200111100200200111100100100200000000000,
#BPMCHANGE 120.26
#GOGOEND
,
100000000000110000000000100000000000110000000000,
#BPMCHANGE 120
100000000000210000002000200000000000210000000000,
100000002000210000002000500000000000000008000000,
100000000000210010002000200000000000110010001000,
111111111111200010002000210010001000110010001000,
100000000000110010001000100000200000210010201000,
200000200000210010201000210010001000110010001000,
100000000000210010001000200000000000210010002000,
100000000000110010001000110010001000110010001000,
300000202020200010201000111000111000210010001000,
100000202020111000111000200000202020100000200000,
300000202020200000200000200000000000111111111111,
#BPMCHANGE 117.99
200000200200200200200200220220220220220220220220,
#BPMCHANGE 122.08
#SCROLL 0.97
#GOGOSTART
100000000000210010002000200000000000210010001000,
#BPMCHANGE 120
#SCROLL 1
100000002000210010002000210010001000110010001000,
100000000000210010002000210010001000110010001000,
#BPMCHANGE 119.3
100000000000210010002000210010001000110010001000,
#BPMCHANGE 120
#GOGOEND
100000000000110100100100100000200000210000200000,
100000200000210000200000500000000000000008000000,
100000000000210000000000200000000000210000002000,
#BPMCHANGE 121.03
111111111111111100200200111111111111111100200200,
#BPMCHANGE 120
100000202020100000200000100000200000220000000000,
300000202020200000200000200000100100100000100000,
100000202020200000200000200000000000220000000000,
#GOGOSTART
1012112110211211,
200000100100200100100200111111111111111111100100,
2021221220122122,
100000200200100000200200111111111111111111200200,
1012112110211211,
200000100100200100100200111111111111111111100100,
2021221220122122,
111100200200111100200200111100200200111100200200,
111111111111111111111111111111111111111111200000,
4300,
#GOGOEND
#END
COURSE:Oni
LEVEL:7
STYLE:Single
BALLOON:30,10
SCOREINIT:570
SCOREDIFF:148
#START
#GOGOSTART
1011111210111112,
#BPMCHANGE 119
1011211210003000,
#BPMCHANGE 120
1011111210111112,
1022202220000000,
1011111210111112,
#BPMCHANGE 120.69
1011211210003000,
#BPMCHANGE 119.94
1011111210111112,
#BPMCHANGE 118.83
#SCROLL 1.01
1011101110003000,
#BPMCHANGE 120.06
#SCROLL 1
#GOGOEND
1010202010111020,
1010202010111000,
1010202010111020,
1010202010111000,
#BPMCHANGE 118.34
2220222022202220,
#BPMCHANGE 122.22
#SCROLL 0.97
21121210,
#BPMCHANGE 119.94
#SCROLL 0.99
2220222022202220,
7,
#BPMCHANGE 120.57
#SCROLL 1
0008,
#BPMCHANGE 120
#GOGOSTART
1011111210111112,
1011211210003000,
1011111210111112,
1022202220000000,
1011111210111112,
1011211210003000,
1011111210111112,
#BPMCHANGE 118.86
1011101110003000,
#BPMCHANGE 120.26
#GOGOEND
1122,
1122,
#BPMCHANGE 120
100102200100,
201101100200,
100102200200,
200101100200,
10120121,
21121000,
101202201202,
2000222022202220,
2011101010101020,
1022201010222010,
1011102020002000,
#BPMCHANGE 117.99
2011111122222222,
#BPMCHANGE 122.08
#SCROLL 0.97
#GOGOSTART
100102200100,
#BPMCHANGE 120
#SCROLL 1
201101100200,
100102200200,
#BPMCHANGE 119.3
200101100200,
#BPMCHANGE 120
#GOGOEND
10120121,
21121000,
101202201202,
#BPMCHANGE 121.03
2000222022202220,
#BPMCHANGE 120
2011101010101020,
1022201010222010,
1011102020002000,
#GOGOSTART
1011111210111112,
1011211210003000,
1011111210111112,
1022202220000000,
1011111210111112,
1011211210003000,
1011111210111112,
1112111211121112,
70000081,
1300,
#GOGOEND
#END
STYLE:Double
BALLOON:25,10
#START P1
#GOGOSTART
1011111010001000,
#BPMCHANGE 119
1011100010003000,
#BPMCHANGE 120
1000100010111110,
1000202220000000,
1000100010111110,
#BPMCHANGE 120.69
1000101110003000,
#BPMCHANGE 119.94
1011111010001000,
#BPMCHANGE 118.83
#SCROLL 1.01
1011100010003000,
#BPMCHANGE 120.06
#SCROLL 1
#GOGOEND
11221110,
1010202010111000,
11,
11,
#BPMCHANGE 118.34
2220222022202220,
#BPMCHANGE 122.22
#SCROLL 0.97
1112112,
#BPMCHANGE 119.94
#SCROLL 0.99
44,
7,
#BPMCHANGE 120.57
#SCROLL 1
0008,
#BPMCHANGE 120
#GOGOSTART
1010111010111011,
1010111010003000,
1011101110101110,
1022202220000000,
1011101110101110,
1011101110003000,
1010111010111011,
#BPMCHANGE 118.86
1011101110003000,
#BPMCHANGE 120.26
#GOGOEND
,
22,
#BPMCHANGE 120
100102200100,
201101100000,
100102200000,
200101100000,
100101100200,
100101100200,
100102200000,
100102200000,
101200101200,
101200101200,
11211020,
#BPMCHANGE 117.99
200000000000500000000000000000000008000000000000,
#BPMCHANGE 122.08
#SCROLL 0.97
#GOGOSTART
2222,
#BPMCHANGE 120
#SCROLL 1
2222,
2222,
#BPMCHANGE 119.3
2220,
#BPMCHANGE 120
#GOGOEND
10120112,
11111000,
1122,
#BPMCHANGE 121.03
22,
#BPMCHANGE 120
10222020,
10222011,
1212,
#GOGOSTART
1011111110001000,
1011100010003000,
1000100010111111,
1000202220000000,
1011111110001000,
1011100010003000,
1000100010111110,
1110111011101110,
70000081,
1300,
#GOGOEND
#END
#START P2
#GOGOSTART
1000100010111110,
#BPMCHANGE 119
1000101110003000,
#BPMCHANGE 120
1011111010001000,
1022200020000000,
1011111010001000,
#BPMCHANGE 120.69
1011100010003000,
#BPMCHANGE 119.94
1000100010111110,
#BPMCHANGE 118.83
#SCROLL 1.01
1000101110003000,
#BPMCHANGE 120.06
#SCROLL 1
#GOGOEND
11,
11,
11221110,
1010202010111000,
#BPMCHANGE 118.34
44,
#BPMCHANGE 122.22
#SCROLL 0.97
11121120,
#BPMCHANGE 119.94
#SCROLL 0.99
2220222022202220,
7,
#BPMCHANGE 120.57
#SCROLL 1
0008,
#BPMCHANGE 120
#GOGOSTART
1011101110101110,
1011101110003000,
1010111010111011,
1022202220000000,
1010111010111011,
1010111010003000,
1011101110101110,
#BPMCHANGE 118.86
1011101110003000,
#BPMCHANGE 120.26
#GOGOEND
,
0202,
#BPMCHANGE 120
2222,
2222,
2222,
2222,
10120112,
11111000,
1122,
22,
10222020,
10222011,
1212,
#BPMCHANGE 117.99
200000000000500000000000000000000008000000000000,
#BPMCHANGE 122.08
#SCROLL 0.97
#GOGOSTART
100102200100,
#BPMCHANGE 120
#SCROLL 1
201101100000,
100102200000,
#BPMCHANGE 119.3
200101100000,
#BPMCHANGE 120
#GOGOEND
100101100200,
100101100200,
100102200000,
#BPMCHANGE 121.03
100102200000,
#BPMCHANGE 120
101200101200,
101200101200,
11211020,
#GOGOSTART
1000100010111111,
1000101110003000,
1011111110001000,
1022200020000000,
1000100010111111,
1000101110003000,
1011111010001000,
1110111011101110,
70000081,
1300,
#GOGOEND
#END
COURSE:Hard
LEVEL:5
BALLOON:25,10
SCOREINIT:520
SCOREDIFF:130
STYLE:Single
#START
#GOGOSTART
1011101010111010,
#BPMCHANGE 119
1011101110003000,
#BPMCHANGE 120
1011101010111010,
1022202220000000,
1011101010111010,
#BPMCHANGE 120.69
1011101110003000,
#BPMCHANGE 119.94
1011101010111010,
#BPMCHANGE 118.83
#SCROLL 1.01
1011101110003000,
#BPMCHANGE 120.06
#SCROLL 1
#GOGOEND
11221110,
1010202010111000,
11221110,
1010202010111000,
#BPMCHANGE 118.34
2220222022202220,
#BPMCHANGE 122.22
#SCROLL 0.97
11121120,
#BPMCHANGE 119.94
#SCROLL 0.99
2220222022202220,
7,
#BPMCHANGE 120.57
#SCROLL 1
0008,
#BPMCHANGE 120
#GOGOSTART
1011101010111010,
1011101110003000,
1011101010111010,
1022202220000000,
1011101010111010,
1011101110003000,
1011101010111010,
#BPMCHANGE 118.86
1011101110003000,
#BPMCHANGE 120.26
#GOGOEND
,
1122,
#BPMCHANGE 120
100102200100,
201101100000,
100102200000,
200101100000,
10120112,
11111000,
100100200202,
2,
20101110,
20211021,
10211020,
#BPMCHANGE 117.99
200000000000500000000000000000000008000000000000,
#BPMCHANGE 122.08
#SCROLL 0.97
#GOGOSTART
200102200100,
#BPMCHANGE 120
#SCROLL 1
201101100000,
100102200000,
#BPMCHANGE 119.3
200101100000,
#BPMCHANGE 120
#GOGOEND
10120112,
11111000,
100100200202,
#BPMCHANGE 121.03
2,
#BPMCHANGE 120
20101110,
10211021,
10211020,
#GOGOSTART
1011101010111010,
1011101110003000,
1011101010111010,
1022202220000000,
1011101010111010,
1011101110003000,
1011101010111010,
1110111011101110,
70000081,
1300,
#GOGOEND
#END
STYLE:Double
#START P1
#GOGOSTART
1011111010001000,
#BPMCHANGE 119
1011100010003000,
#BPMCHANGE 120
1000100010111110,
1000202220000000,
1000100010111110,
#BPMCHANGE 120.69
1000101110003000,
#BPMCHANGE 119.94
1011111010001000,
#BPMCHANGE 118.83
#SCROLL 1.01
1011100010003000,
#BPMCHANGE 120.06
#SCROLL 1
#GOGOEND
11221110,
1010202010111000,
11,
11,
#BPMCHANGE 118.34
2220222022202220,
#BPMCHANGE 122.22
#SCROLL 0.97
1112112,
#BPMCHANGE 119.94
#SCROLL 0.99
44,
7,
#BPMCHANGE 120.57
#SCROLL 1
0008,
#BPMCHANGE 120
#GOGOSTART
1010111010111011,
1010111010003000,
1011101110101110,
1022202220000000,
1011101110101110,
1011101110003000,
1010111010111011,
#BPMCHANGE 118.86
1011101110003000,
#BPMCHANGE 120.26
#GOGOEND
,
22,
#BPMCHANGE 120
100102200100,
201101100000,
100102200000,
200101100000,
100101100200,
100101100200,
100102200000,
100102200000,
101200101200,
101200101200,
11211020,
#BPMCHANGE 117.99
200000000000500000000000000000000008000000000000,
#BPMCHANGE 122.08
#SCROLL 0.97
#GOGOSTART
2222,
#BPMCHANGE 120
#SCROLL 1
2222,
2222,
#BPMCHANGE 119.3
2220,
#BPMCHANGE 120
#GOGOEND
10120112,
11111000,
1122,
#BPMCHANGE 121.03
22,
#BPMCHANGE 120
10222020,
10222011,
1212,
#GOGOSTART
1011111110001000,
1011100010003000,
1000100010111111,
1000202220000000,
1011111110001000,
1011100010003000,
1000100010111110,
1110111011101110,
70000081,
1300,
#GOGOEND
#END
#START P2
#GOGOSTART
1000100010111110,
#BPMCHANGE 119
1000101110003000,
#BPMCHANGE 120
1011111010001000,
1022200020000000,
1011111010001000,
#BPMCHANGE 120.69
1011100010003000,
#BPMCHANGE 119.94
1000100010111110,
#BPMCHANGE 118.83
#SCROLL 1.01
1000101110003000,
#BPMCHANGE 120.06
#SCROLL 1
#GOGOEND
11,
11,
11221110,
1010202010111000,
#BPMCHANGE 118.34
44,
#BPMCHANGE 122.22
#SCROLL 0.97
11121120,
#BPMCHANGE 119.94
#SCROLL 0.99
2220222022202220,
7,
#BPMCHANGE 120.57
#SCROLL 1
0008,
#BPMCHANGE 120
#GOGOSTART
1011101110101110,
1011101110003000,
1010111010111011,
1022202220000000,
1010111010111011,
1010111010003000,
1011101110101110,
#BPMCHANGE 118.86
1011101110003000,
#BPMCHANGE 120.26
#GOGOEND
,
0202,
#BPMCHANGE 120
2222,
2222,
2222,
2222,
10120112,
11111000,
1122,
22,
10222020,
10222011,
1212,
#BPMCHANGE 117.99
200000000000500000000000000000000008000000000000,
#BPMCHANGE 122.08
#SCROLL 0.97
#GOGOSTART
100102200100,
#BPMCHANGE 120
#SCROLL 1
201101100000,
100102200000,
#BPMCHANGE 119.3
200101100000,
#BPMCHANGE 120
#GOGOEND
100101100200,
100101100200,
100102200000,
#BPMCHANGE 121.03
100102200000,
#BPMCHANGE 120
101200101200,
101200101200,
11211020,
#GOGOSTART
1000100010111111,
1000101110003000,
1011111110001000,
1022200020000000,
1000100010111111,
1000101110003000,
1011111010001000,
1110111011101110,
70000081,
1300,
#GOGOEND
#END
COURSE:Normal
LEVEL:5
BALLOON:20,7
SCOREINIT:630
SCOREDIFF:170
STYLE:Single
#START
#GOGOSTART
1111,
#BPMCHANGE 119
11101000,
#BPMCHANGE 120
1111,
11101000,
1111,
#BPMCHANGE 120.69
11101000,
#BPMCHANGE 119.94
11101110,
#BPMCHANGE 118.83
#SCROLL 1.01
10111030,
#BPMCHANGE 120.06
#SCROLL 1
#GOGOEND
10201110,
10201110,
10201110,
10201110,
#BPMCHANGE 118.34
22202220,
#BPMCHANGE 122.22
#SCROLL 0.97
11101210,
#BPMCHANGE 119.94
#SCROLL 0.99
22202220,
7,
#BPMCHANGE 120.57
#SCROLL 1
0008,
#BPMCHANGE 120
#GOGOSTART
1111,
11111020,
1111,
11111000,
1111,
11111020,
11101110,
#BPMCHANGE 118.86
10111030,
#BPMCHANGE 120.26
#GOGOEND
,
1122,
#BPMCHANGE 120
1122,
2110,
1122,
2110,
10110011,
10112000,
10222020,
20222020,
20101110,
12101000,
00121020,
#BPMCHANGE 117.99
200000000000500000000000000000000008000000000000,
#BPMCHANGE 122.08
#SCROLL 0.97
#GOGOSTART
1122,
#BPMCHANGE 120
#SCROLL 1
2110,
1122,
#BPMCHANGE 119.3
2110,
#BPMCHANGE 120
#GOGOEND
10110011,
10112000,
10222020,
#BPMCHANGE 121.03
20222020,
#BPMCHANGE 120
20101110,
12101000,
00121020,
#GOGOSTART
11101110,
11111020,
11101110,
11111000,
11101110,
11111020,
11101110,
12121212,
70000081,
1300,
#GOGOEND
#END
STYLE:Double
#START P1
#GOGOSTART
11101110,
#BPMCHANGE 119
1110,
#BPMCHANGE 120
10111010,
11101000,
11101110,
#BPMCHANGE 120.69
1110,
#BPMCHANGE 119.94
10111010,
#BPMCHANGE 118.83
#SCROLL 1.01
11101030,
#BPMCHANGE 120.06
#SCROLL 1
#GOGOEND
10101110,
10101110,
0202,
0202,
#BPMCHANGE 118.34
22202000,
#BPMCHANGE 122.22
#SCROLL 0.97
11101000,
#BPMCHANGE 119.94
#SCROLL 0.99
20002220,
7,
#BPMCHANGE 120.57
#SCROLL 1
0008,
#BPMCHANGE 120
#GOGOSTART
11101110,
10111020,
10111010,
11101000,
11101110,
10111020,
10111010,
#BPMCHANGE 118.86
10111030,
#BPMCHANGE 120.26
#GOGOEND
,
12,
#BPMCHANGE 120
100101100000,
100101100000,
100101100000,
100101100000,
100101100101,
100101100000,
200202200202,
2220,
10110010110,
1130,
101100200200,
#BPMCHANGE 117.99
200000000000500000000000000000000008000000000000,
#BPMCHANGE 122.08
#SCROLL 0.97
#GOGOSTART
0022,
#BPMCHANGE 120
#SCROLL 1
0022,
0022,
#BPMCHANGE 119.3
0022,
#BPMCHANGE 120
#GOGOEND
0022,
0022,
0022,
#BPMCHANGE 121.03
0022,
#BPMCHANGE 120
1212,
12121000,
12121000,
#GOGOSTART
1011100010111000,
1011000010004000,
1111,
1110,
1000100010111000,
1011100010004000,
1011100010001000,
00120012,
70000081,
1300,
#GOGOEND
#END
#START P2
#GOGOSTART
10111010,
#BPMCHANGE 119
11101000,
#BPMCHANGE 120
11101110,
11101000,
10111010,
#BPMCHANGE 120.69
11101000,
#BPMCHANGE 119.94
11101110,
#BPMCHANGE 118.83
#SCROLL 1.01
10111030,
#BPMCHANGE 120.06
#SCROLL 1
#GOGOEND
0202,
0202,
10101110,
10101110,
#BPMCHANGE 118.34
20002220,
#BPMCHANGE 122.22
#SCROLL 0.97
10001110,
#BPMCHANGE 119.94
#SCROLL 0.99
22202000,
7,
#BPMCHANGE 120.57
#SCROLL 1
0008,
#BPMCHANGE 120
#GOGOSTART
10111010,
11101020,
11101110,
10111020,
10111010,
11101020,
11101110,
#BPMCHANGE 118.86
10111030,
#BPMCHANGE 120.26
#GOGOEND
,
0102,
#BPMCHANGE 120
0022,
0022,
0022,
0022,
0022,
0022,
0022,
0022,
1212,
12121000,
12121000,
#BPMCHANGE 117.99
200000000000500000000000000000000008000000000000,
#BPMCHANGE 122.08
#SCROLL 0.97
#GOGOSTART
100101100000,
#BPMCHANGE 120
#SCROLL 1
100101100000,
100101100000,
#BPMCHANGE 119.3
100101100000,
#BPMCHANGE 120
#GOGOEND
100101100101,
100101100000,
200202200202,
#BPMCHANGE 121.03
2220,
#BPMCHANGE 120
10110010110,
1130,
101100200200,
#GOGOSTART
1111,
1114,
1011100010111000,
1011100010000000,
1011100010001000,
1011100010004000,
1000100010111000,
12001200,
70000081,
1300,
#GOGOEND
#END
COURSE:Easy
LEVEL:3
SCOREINIT:660
SCOREDIFF:190
STYLE:Single
#START
#GOGOSTART
11,
#BPMCHANGE 119
1110,
#BPMCHANGE 120
11,
1110,
22,
#BPMCHANGE 120.69
2220,
#BPMCHANGE 119.94
11,
#BPMCHANGE 118.83
#SCROLL 1.01
1110,
#BPMCHANGE 120.06
#SCROLL 1
#GOGOEND
1210,
1210,
1210,
1210,
#BPMCHANGE 118.34
2220,
#BPMCHANGE 122.22
#SCROLL 0.97
1110,
#BPMCHANGE 119.94
#SCROLL 0.99
2220,
5,
#BPMCHANGE 120.57
#SCROLL 1
000000000000000000000008000000000000000000000000,
#BPMCHANGE 120
#GOGOSTART
11,
1110,
11,
1110,
22,
2220,
11,
#BPMCHANGE 118.86
1113,
#BPMCHANGE 120.26
#GOGOEND
,
12,
#BPMCHANGE 120
1120,
2110,
1120,
2110,
1,
1120,
12,
22,
2011,
1011,
1011,
#BPMCHANGE 117.99
200000000000500000000000000000000008000000000000,
#BPMCHANGE 122.08
#SCROLL 0.97
#GOGOSTART
1120,
#BPMCHANGE 120
#SCROLL 1
2110,
1120,
#BPMCHANGE 119.3
2110,
#BPMCHANGE 120
#GOGOEND
1,
1120,
12,
#BPMCHANGE 121.03
22,
#BPMCHANGE 120
2011,
1011,
1011,
#GOGOSTART
31,
1110,
31,
1110,
42,
2220,
33,
1111,
500000000000000000000000000008000000000000100000,
1300,
#GOGOEND
#END
STYLE:Double
#START P1
#GOGOSTART
1110,
#BPMCHANGE 119
1110,
#BPMCHANGE 120
1011,
11,
2220,
#BPMCHANGE 120.69
2220,
#BPMCHANGE 119.94
1011,
#BPMCHANGE 118.83
#SCROLL 1.01
11,
#BPMCHANGE 120.06
#SCROLL 1
#GOGOEND
1210,
1210,
1012,
11,
#BPMCHANGE 118.34
,
#BPMCHANGE 122.22
#SCROLL 0.97
11,
#BPMCHANGE 119.94
#SCROLL 0.99
22,
5,
#BPMCHANGE 120.57
#SCROLL 1
000000000000000000000008000000000000000000000000,
#BPMCHANGE 120
#GOGOSTART
11,
1110,
0202,
11,
22,
22,
0101,
#BPMCHANGE 118.86
1033,
#BPMCHANGE 120.26
#GOGOEND
,
1,
#BPMCHANGE 120
1100,
1100,
02,
02,
01,
0200,
1,
11,
0001,
1001,
1001,
#BPMCHANGE 117.99
100000000000500000000000000000000008000000000000,
#BPMCHANGE 122.08
#SCROLL 0.97
#GOGOSTART
02,
#BPMCHANGE 120
#SCROLL 1
02,
1100,
#BPMCHANGE 119.3
1100,
#BPMCHANGE 120
#GOGOEND
1,
11,
01,
#BPMCHANGE 121.03
0200,
#BPMCHANGE 120
22,
22,
22,
#GOGOSTART
1110,
1110,
3011,
11,
2022,
44,
33,
1111,
500000000000000000000000000008000000000000100000,
1300,
#GOGOEND
#END
#START P2
#GOGOSTART
1011,
#BPMCHANGE 119
11,
#BPMCHANGE 120
1110,
1110,
2022,
#BPMCHANGE 120.69
22,
#BPMCHANGE 119.94
1110,
#BPMCHANGE 118.83
#SCROLL 1.01
1110,
#BPMCHANGE 120.06
#SCROLL 1
#GOGOEND
1012,
11,
1210,
1210,
#BPMCHANGE 118.34
22,
#BPMCHANGE 122.22
#SCROLL 0.97
11,
#BPMCHANGE 119.94
#SCROLL 0.99
,
5,
#BPMCHANGE 120.57
#SCROLL 1
000000000000000000000008000000000000000000000000,
#BPMCHANGE 120
#GOGOSTART
0202,
11,
11,
1110,
0101,
22,
22,
#BPMCHANGE 118.86
1033,
#BPMCHANGE 120.26
#GOGOEND
,
01,
#BPMCHANGE 120
02,
02,
1100,
1100,
1,
11,
01,
0200,
22,
22,
22,
#BPMCHANGE 117.99
200000000000500000000000000000000008000000000000,
#BPMCHANGE 122.08
#SCROLL 0.97
#GOGOSTART
1100,
#BPMCHANGE 120
#SCROLL 1
1100,
02,
#BPMCHANGE 119.3
02,
#BPMCHANGE 120
#GOGOEND
01,
0200,
1,
#BPMCHANGE 121.03
11,
#BPMCHANGE 120
0001,
1001,
1001,
#GOGOSTART
3011,
11,
1110,
1110,
2220,
44,
33,
1111,
500000000000000000000000000008000000000000100000,
1300,
#GOGOEND
#END