Files
TJA-by-song-no/tja/849.tja
2026-03-07 15:37:31 +09:00

1184 lines
12 KiB
Plaintext

//TJADB Project
TITLE:poxei♢DOON
TITLEJA:poxei♦DOON
SUBTITLE:--Kaneko Chiharu
BPM:125
WAVE:poxei DOON.ogg
OFFSET:-2.030
DEMOSTART:38.884
COURSE:Oni
LEVEL:10
BALLOON:14,10,43,10,10,8
SCOREINIT:280
SCOREDIFF:58
#START
#MEASURE 1/12
#BARLINEOFF
22,
#BARLINEON
#MEASURE 3/4
200020002222,
#MEASURE 4/4
20000122,
#MEASURE 3/4
122100022,
#MEASURE 4/4
200000000000000000000022,
#MEASURE 3/4
200020001222,
#MEASURE 4/4
10000122,
#MEASURE 3/4
111700008,
#BPMCHANGE 300
#MEASURE 4/4
#GOGOSTART
30110110,
11012010,
30110110,
11012110,
30110110,
21012210,
20210210,
30130130,
4000112000112000,
100100200000000000100100200000200000500008000000,
4000102220102020,
100000200200200000100000200000200000500008000000,
4011202011202011,
200000200000100100100100200000200000500008000000,
2211112211112222,
200000100100100000100000100000100000200020002000,
#GOGOEND
#BPMCHANGE 310
#SCROLL 0.97
300404,
040404,
040404,
100010001000100000100000100000000100000000100000,
300111400040,
040404,
00
00000000000000000000000000000000
#SCROLL 2.9
50000000000000000008000000000000000000000000000000000000000000000000000000000000000000000000000000000000000000000000000000000000000000000000000000000000000000000000000000000000000000000000000000000000000000000000000000000000,
#SCROLL 0.97
111101110110,
300000000000100000100000400000000000100040000100,
100000004000000000100000400000000000100040000000,
100000004000000000100000400010001000100040001000,
1000000010010010,
300000000000100000100000400000000000100040000100,
100000004000000000100000400000000000100040000000,
#BPMCHANGE 77.5
#SCROLL 3.87
#MEASURE 2/4
0000000000000000
#SCROLL 2.84
2200000000000000,
#SCROLL 1
#BPMCHANGE 300
#MEASURE 4/4
30210122,
1020202010222010,
10210122,
1010221000202020,
10210122,
1000201000101120,
1010221000201122,
1022201122201020,
3000201000102220,
100000100000000000100100100000002000000020000000,
10210122,
1120201022201012,
1000221000111020,
100200100000000000100100200000001000000010000000,
2000201011101040,
0010202210222010,
4,
,
100100100100100100100100200020002000200000200000,
200020002200000000000000,
40120211,
2000102000202210,
2020112000102211,
2011102211102010,
4000102000201110,
200000200000000000200200200000001000000010000000,
20120211,
2210102011102021,
2000112000222010,
200100200000000000200200100000002000000020000000,
3,
,
1,
,
1,
1,
33,
7008,
#GOGOSTART
11111111,
2222102222102222,
11111111,
1222101222101222,
11111111,
1122101122101122,
11211212,
1111221111221122,
#GOGOEND
#MEASURE 6/4
200000222000200000222000,
#MEASURE 2/4
#BARLINEOFF
20
#SCROLL 0.75
11,
#BARLINEON
#BPMCHANGE 310
#MEASURE 6/4
#SCROLL 0.73
111202,
100000111200100200,
111201,
100000222200000111,
100200200100000222,
100200200100000222,
100200200100000111,
20002020202220000000
#SCROLL 0.97
1010,
100010201000122020201000,
100022101010102010001222,
100010201000122020201000,
100000000000200200200000100010001000100000200000000000200200100100200000,
100010221000102220201022,
100012221000102210221122,
#MEASURE 4/4
12112112,
11211211,
211211211211,
2112112112112112,
#BPMCHANGE 300
#SCROLL 1
#GOGOSTART
7,
#SCROLL 0.5
,
#SCROLL 0.63
,
#SCROLL 0.79
#GOGOEND
8,
#SCROLL 1
#GOGOSTART
30130213,
0011201011101030,
000000100000200000200000000010100000200000100000,
1120201000202010,
3000103000112010,
1010003000221010,
000300000000001100200100,
1120201000222010,
3000103000112010,
100300000300000300001010,
#GOGOEND
2012102012112011,
2110211221112222,
00
#GOGOSTART
330213,
0011201022101030,
000000100000200000200000000010100000200200100000,
1120201000211111,
00330213,
0011201022101030,
000000100000200000200000000010100000200200100000,
1120201022222010,
3000103000102210,
1110201020102210,
3000103000102210,
1011221022222010,
3000103000102210,
100300000300000300001010,
2012221012221012,
2210122210122210,
2020222210202222,
100020002000100020002000100100200200100200100200,
#GOGOEND
1,
,
1,
,
1,
1,
33,
7008,
#GOGOSTART
11111111,
1222101222101222,
11111111,
1122101122101122,
11111111,
1112101112101112,
1010201010221122,
#GOGOEND
7008,
#GOGOSTART
1020202010122210,
1222101222101222,
1010202010112210,
1122101122101122,
1010102010111210,
1112101112101112,
1020102010121212,
1122111222111222,
100
#SCROLL 1.15
40
#SCROLL 1.32
4,
#SCROLL 1
0
#SCROLL 1.51
40
#SCROLL 1.73
40
#SCROLL 1.99
4,
#SCROLL 1
0
#SCROLL 2.28
40
#SCROLL 2.62
40
#SCROLL 3
4,
#BARLINEOFF
#MEASURE 3/4
#SCROLL 3.44
700008,
#MEASURE 5/24
#BPMCHANGE 250
#SCROLL 0.5
02020,
#GOGOEND
#BPMCHANGE 125
#SCROLL 1
#BARLINEON
#MEASURE 3/4
200020002222,
#MEASURE 4/4
20000222,
#MEASURE 3/4
111100011,
#MEASURE 4/4
#BPMCHANGE 62.5
#SCROLL 2
1
#SCROLL 1.02
3,
#END
COURSE:Hard
LEVEL:8
BALLOON:8,12,7,28,7,7
SCOREINIT:280
SCOREDIFF:63
#START
#MEASURE 1/12
#BARLINEOFF
,
#BARLINEON
#MEASURE 3/4
200020002222,
#MEASURE 4/4
20000222,
#MEASURE 3/4
222200022,
#MEASURE 4/4
2,
#MEASURE 3/4
200020002222,
#MEASURE 4/4
20000111,
#MEASURE 3/4
111700008,
#BPMCHANGE 300
#MEASURE 4/4
#GOGOSTART
30110010,
11002000,
30110010,
11002000,
30110010,
21002000,
10010010,
30030030,
40220220,
22022010,
40220220,
22022110,
40220220,
22021110,
2220202020202020,
2011101010101000,
#GOGOEND
#BPMCHANGE 310
#SCROLL 0.97
300404,
040404,
040404,
0000000010010010,
300404,
040404,
,
1011,
300000000000100000100000400000000000000040000000,
100000004000000000100000400000000000000040000000,
100000004000000000100000400000000000000040000000,
1000000010010010,
300000000000100000100000400000000000000040000000,
100000004000000000100000400000000000000040000000,
#BPMCHANGE 77.5
#SCROLL 3.87
#MEASURE 2/4
0000000000000000
#SCROLL 2.84
2200000000000000,
#SCROLL 1
#BPMCHANGE 300
#MEASURE 4/4
30210111,
10220222,
10210122,
10210222,
10210122,
10210212,
10210212,
1020002220202000,
30210120,
200100000100200020002000,
10210122,
10210210,
10210211,
100200000200100010001000,
2000202022202040,
0010101010111010,
4,
,
7,
0800,
40120211,
20120121,
20120121,
2010001110101000,
40120210,
100200000200100010001000,
20120211,
20120120,
20120122,
200100000100200020002000,
3,
,
1,
,
1,
1,
33,
7008,
#GOGOSTART
11111111,
1110101110101000,
11111111,
1110101110101000,
11111111,
1110101110101000,
11111111,
1110101110101110,
#GOGOEND
#MEASURE 6/4
,
#MEASURE 2/4
#BARLINEOFF
00
#SCROLL 0.75
11,
#BARLINEON
#BPMCHANGE 310
#MEASURE 6/4
#SCROLL 0.73
111202,
100000111100200200,
111201,
100000222200000111,
100200200100000111,
100200200100000111,
100200200100000111,
1022222000
#SCROLL 0.97
11,
101110200010,
100111201020,
101110200010,
100000000000101010200000000000100100,
102220100011,
102220101120,
#MEASURE 4/4
10120110,
12011120,
111200111200,
1110101010101010,
#BPMCHANGE 300
#SCROLL 1
#GOGOSTART
7,
#SCROLL 0.5
,
#SCROLL 0.63
,
#SCROLL 0.75
#GOGOEND
8,
#SCROLL 1
#GOGOSTART
30220022,
0010001022201040,
00220211,
22210221,
20110101,
2020001000222010,
04000211,
2020201000222010,
20110101,
200200000400000400001010,
#GOGOEND
12012012,
0010200011102020,
00
#GOGOSTART
330022,
0010001022201040,
00110211,
22210222,
00330022,
0010001022201040,
00110211,
22210221,
20110101,
2020003000222010,
20110101,
2020003000222010,
20110101,
200200000400000400001010,
12012012,
01201201,
21112111,
2010201020102220,
#GOGOEND
3,
,
1,
,
1,
1,
33,
7008,
#GOGOSTART
11111111,
1110101110101000,
11111111,
1110101110101000,
11111111,
1110101110101000,
1010101010111010,
#GOGOEND
7008,
#GOGOSTART
1010101010111010,
1110101110101110,
1010101010111010,
1110101110101110,
1010101010111010,
1110101110101110,
1010101010111010,
1110101110101111,
100
#SCROLL 1.1
40
#SCROLL 1.3
4,
#SCROLL 1
0
#SCROLL 1.5
40
#SCROLL 1.7
40
#SCROLL 1.9
4,
#SCROLL 1
0
#SCROLL 2.2
40
#SCROLL 2.5
40
#SCROLL 3
4,
#BARLINEOFF
#MEASURE 3/4
#SCROLL 3.5
,
#MEASURE 5/24
#BPMCHANGE 250
#SCROLL 0.5
,
#GOGOEND
#BPMCHANGE 125
#SCROLL 1
#BARLINEON
#MEASURE 3/4
200020002222,
#MEASURE 4/4
2,
#MEASURE 3/4
111100011,
#SCROLL 2
#BPMCHANGE 62.5
#MEASURE 2/4
1,
#BARLINEOFF
#SCROLL 1
3,
,
#END
COURSE:Normal
LEVEL:7
BALLOON:5,7,3,15,3
SCOREINIT:350
SCOREDIFF:85
#START
#MEASURE 1/12
#BARLINEOFF
,
#BARLINEON
#MEASURE 3/4
200020002220,
#MEASURE 4/4
2,
#MEASURE 3/4
222200000,
#MEASURE 4/4
2,
#MEASURE 3/4
200020002220,
#MEASURE 4/4
2,
#MEASURE 3/4
111700008,
#BPMCHANGE 300
#MEASURE 4/4
#GOGOSTART
3,
02,
3,
02,
3,
12,
1,
30030030,
3003,
0011,
3003,
0022,
3003,
0011,
5,
000000000000000000000000000000000008000000000000,
#GOGOEND
#BPMCHANGE 310
#SCROLL 0.97
300404,
040404,
040404,
,
300404,
040404,
,
,
300404,
140404,
140404,
1,
300404,
140404,
#BPMCHANGE 77.5
#SCROLL 3.87
#MEASURE 2/4
0000000000000000
#SCROLL 2.84
2200000000000000,
#SCROLL 1
#BPMCHANGE 300
#MEASURE 4/4
30000111,
10220111,
1,
00010111,
10220111,
10220111,
1,
00010010,
10110220,
11022000,
1,
00010010,
10110220,
11022000,
1,
,
3,
,
7,
0800,
10220222,
20110111,
1,
00010010,
10110220,
11022000,
1,
00010010,
10110220,
11022000,
3,
,
1,
,
1,
1,
33,
7008,
#GOGOSTART
11111111,
10110110,
11111111,
10110110,
11111111,
10110110,
11111111,
5,
#GOGOEND
#MEASURE 6/4
8,
#MEASURE 2/4
#BARLINEOFF
,
#BARLINEON
#BPMCHANGE 310
#MEASURE 6/4
#SCROLL 0.73
111201,
101100,
111201,
1,
222100,
222100,
111101,
2,
#SCROLL 0.97
111201,
101100,
111201,
1,
222101,
222111,
#MEASURE 4/4
5,
,
,
0008,
#BPMCHANGE 300
#SCROLL 1
#GOGOSTART
7,
#SCROLL 0.5
,
#SCROLL 0.63
,
#SCROLL 0.75
#GOGOEND
8,
#SCROLL 1
#GOGOSTART
30220022,
01011011,
00000222,
20220001,
10110201,
11020011,
04000222,
20220001,
10110201,
11040400,
#GOGOEND
11022011,
02201111,
00
#GOGOSTART
330022,
01011011,
00000222,
20220000,
00330022,
01011011,
00000222,
20220001,
10110201,
11020001,
10110201,
11020001,
10110201,
11040400,
11022011,
02201102,
5,
0008,
#GOGOEND
3,
,
1,
,
1,
1,
33,
7008,
#GOGOSTART
11111111,
10110110,
11111111,
10110110,
11111111,
10110110,
11111111,
#GOGOEND
,
#GOGOSTART
11122211,
10110110,
11122211,
10110110,
11122211,
10110110,
11122211,
5008,
300
#SCROLL 1.1
40
#SCROLL 1.3
4,
#SCROLL 1
0
#SCROLL 1.5
40
#SCROLL 1.7
40
#SCROLL 1.9
4,
#SCROLL 1
0
#SCROLL 2.2
40
#SCROLL 2.5
40
#SCROLL 3
4,
#BARLINEOFF
#MEASURE 3/4
#SCROLL 3.5
,
#MEASURE 5/24
#BPMCHANGE 250
#SCROLL 0.5
,
#GOGOEND
#BPMCHANGE 125
#SCROLL 1
#BARLINEON
#MEASURE 3/4
200020002220,
#MEASURE 4/4
2,
#MEASURE 3/4
111100000,
#SCROLL 2
#BPMCHANGE 62.5
#MEASURE 2/4
1,
#BARLINEOFF
#SCROLL 1
3,
,
#END
COURSE:Easy
LEVEL:5
BALLOON:5,6,2,12,4,4,2,12
SCOREINIT:340
SCOREDIFF:70
#START
#MEASURE 1/12
#BARLINEOFF
,
#BARLINEON
#MEASURE 3/4
110,
#MEASURE 4/4
1,
#MEASURE 3/4
110,
#MEASURE 4/4
1,
#MEASURE 3/4
110,
#MEASURE 4/4
1,
#MEASURE 3/4
700008,
#BPMCHANGE 300
#SCROLL 0.75
#MEASURE 4/4
#GOGOSTART
3,
,
1,
,
1,
,
2,
1,
1001,
01,
1001,
01,
1001,
01,
5,
00000800,
#GOGOEND
#BPMCHANGE 310
#SCROLL 0.73
300202,
020202,
020202,
,
300202,
020202,
,
,
300202,
020202,
020202,
,
300202,
020202,
#BPMCHANGE 77.5
#SCROLL 2.92
#MEASURE 2/4
,
#SCROLL 0.75
#BPMCHANGE 300
#MEASURE 4/4
3,
10010010,
1,
,
1,
1,
5,
00000800,
10010010,
01,
1,
,
20020020,
02,
2,
,
3,
,
7,
0800,
1,
1,
5,
00000800,
10010010,
01,
1,
,
10010010,
01,
3,
,
1,
,
1,
1,
33,
7008,
#GOGOSTART
30030030,
30030030,
30030030,
30030030,
30030030,
30030030,
6,
,
#GOGOEND
#MEASURE 6/4
8,
#MEASURE 2/4
#BARLINEOFF
,
#BARLINEON
#BPMCHANGE 310
#MEASURE 6/4
#SCROLL 0.73
11,
101100,
100101,
1,
101100,
101100,
101102,
2,
11,
101100,
100101,
1,
101100,
101100,
#MEASURE 4/4
5,
,
,
00000800,
#BPMCHANGE 300
#SCROLL 0.75
#GOGOSTART
7,
,
,
#GOGOEND
8,
#GOGOSTART
10220022,
01001001,
,
,
20220200,
11010022,
02000000,
,
20220200,
11010000,
#GOGOEND
5,
00000800,
00
#GOGOSTART
220022,
01001007,
,
8,
00220022,
01001007,
,
8,
20220200,
11010000,
20220200,
11010000,
20220200,
11010000,
5,
,
,
00000800,
#GOGOEND
3,
,
1,
,
1,
1,
33,
7008,
#GOGOSTART
30030030,
30030030,
30030030,
30030030,
30030030,
30030030,
6,
#GOGOEND
8,
#GOGOSTART
30040030,
40030040,
30040030,
40030040,
30040030,
40030040,
30040030,
60000800,
7,
,
,
#BARLINEOFF
#MEASURE 3/4
#SCROLL 3.5
8,
#MEASURE 5/24
#BPMCHANGE 250
#SCROLL 0.5
,
#GOGOEND
#BPMCHANGE 125
#SCROLL 1
#BARLINEON
#MEASURE 3/4
110,
#MEASURE 4/4
1,
#MEASURE 3/4
110,
#SCROLL 2
#BPMCHANGE 62.5
#MEASURE 2/4
3,
#BARLINEOFF
#SCROLL 1
,
,
#END