1104 lines
9.4 KiB
Plaintext
1104 lines
9.4 KiB
Plaintext
//TJADB Project
|
|
TITLE:Uchuu-hikoushi Boukentan
|
|
TITLEJA:うちゅうひこうし冒険譚
|
|
SUBTITLE:--Shougo Nomura
|
|
SUBTITLEJA:しょご/野村渉悟
|
|
BPM:208
|
|
WAVE:Uchuu-hikoushi Boukentan.ogg
|
|
OFFSET:-2.002
|
|
DEMOSTART:72.212
|
|
|
|
COURSE:Oni
|
|
LEVEL:10
|
|
BALLOON:4,2,2
|
|
SCOREINIT:370
|
|
SCOREDIFF:100
|
|
|
|
|
|
#START
|
|
|
|
|
|
#MEASURE 8/4
|
|
#SCROLL 0.5
|
|
0122,
|
|
100000000000002220000000200000
|
|
#SCROLL 0.6
|
|
30,
|
|
#MEASURE 4/4
|
|
00102010201110
|
|
#SCROLL 0.75
|
|
30,
|
|
00102010201120
|
|
#SCROLL 0.9
|
|
30,
|
|
00112210201220
|
|
#SCROLL 1.1
|
|
30,
|
|
|
|
0000200000222020,
|
|
000000200000200200200000000000200000200020002000,
|
|
2000200210201122,
|
|
000000200000100100100100000000200000101010100000,
|
|
2000200010222020,
|
|
000000200000200200200000100000200000200020002000,
|
|
2000200210200020,
|
|
02211122,
|
|
|
|
1000200000222020,
|
|
000000200000200200200000000000200000200020002000,
|
|
2000200210201110,
|
|
22
|
|
#SCROLL 2.2
|
|
#GOGOSTART
|
|
30,
|
|
#GOGOEND
|
|
#SCROLL 1
|
|
2020201010102022,
|
|
1020203000
|
|
#SCROLL 0.75
|
|
221111,
|
|
|
|
100000300201,
|
|
102200300201,
|
|
100200300201,
|
|
102200302200,
|
|
101100202200,
|
|
101202102200,
|
|
101102201102,
|
|
100010200070000000800
|
|
#SCROLL 1
|
|
300,
|
|
|
|
000000200200100000100000200000100020200000100000,
|
|
000000100020200000100000000000100000200020002000,
|
|
100020002000100020002000200000100100100000200000,
|
|
100000200200200000100100200000200000101010100000,
|
|
2211201122102211,
|
|
2011221022112030,
|
|
0010221000102210,
|
|
01114400,
|
|
|
|
3
|
|
#SCROLL 0.96
|
|
10
|
|
#SCROLL 0.88
|
|
1
|
|
#SCROLL 0.84
|
|
30
|
|
#SCROLL 0.77
|
|
1
|
|
#SCROLL 0.74
|
|
1,
|
|
#SCROLL 0.71
|
|
4
|
|
#SCROLL 0.68
|
|
1
|
|
#SCROLL 0.65
|
|
10
|
|
#SCROLL 0.59
|
|
1000,
|
|
#SCROLL 0.5
|
|
3
|
|
#SCROLL 0.52
|
|
10
|
|
#SCROLL 0.57
|
|
1
|
|
#SCROLL 0.59
|
|
30
|
|
#SCROLL 0.65
|
|
1
|
|
#SCROLL 0.68
|
|
1,
|
|
#SCROLL 0.71
|
|
4
|
|
#SCROLL 0.74
|
|
1
|
|
#SCROLL 0.77
|
|
10
|
|
#SCROLL 0.84
|
|
1000,
|
|
#SCROLL 1
|
|
3
|
|
#SCROLL 0.96
|
|
10
|
|
#SCROLL 0.88
|
|
1
|
|
#SCROLL 0.84
|
|
30
|
|
#SCROLL 0.77
|
|
1
|
|
#SCROLL 0.74
|
|
1,
|
|
#SCROLL 0.71
|
|
4
|
|
#SCROLL 0.68
|
|
1
|
|
#SCROLL 0.65
|
|
10
|
|
#SCROLL 0.59
|
|
100
|
|
#SCROLL 0.52
|
|
2,
|
|
#SCROLL 0.5
|
|
3
|
|
#SCROLL 0.52
|
|
2
|
|
#SCROLL 0.55
|
|
20
|
|
#SCROLL 0.59
|
|
1
|
|
#SCROLL 0.62
|
|
10
|
|
#SCROLL 0.68
|
|
2,
|
|
#SCROLL 0.71
|
|
40
|
|
#SCROLL 0.77
|
|
1
|
|
#SCROLL 0.8
|
|
10
|
|
#SCROLL 0.88
|
|
2
|
|
#SCROLL 0.92
|
|
20,
|
|
|
|
#SCROLL 1
|
|
3
|
|
#SCROLL 0.96
|
|
20
|
|
#SCROLL 0.88
|
|
2
|
|
#SCROLL 0.84
|
|
30
|
|
#SCROLL 0.77
|
|
1
|
|
#SCROLL 0.74
|
|
1,
|
|
#SCROLL 0.71
|
|
4
|
|
#SCROLL 0.68
|
|
1
|
|
#SCROLL 0.65
|
|
10
|
|
#SCROLL 0.59
|
|
1000,
|
|
#SCROLL 0.5
|
|
3
|
|
#SCROLL 0.52
|
|
10
|
|
#SCROLL 0.57
|
|
2
|
|
#SCROLL 0.59
|
|
20
|
|
#SCROLL 0.65
|
|
1
|
|
#SCROLL 0.68
|
|
1,
|
|
#SCROLL 0.71
|
|
0
|
|
#SCROLL 0.74
|
|
2
|
|
#SCROLL 0.77
|
|
20
|
|
#SCROLL 0.84
|
|
1
|
|
#SCROLL 0.88
|
|
1
|
|
#SCROLL 0.92
|
|
2
|
|
#SCROLL 0.96
|
|
1,
|
|
#SCROLL 1
|
|
1020201020211020,
|
|
1020201020211120,
|
|
1020201020211020,
|
|
1020201020211120,
|
|
|
|
3020201040211020,
|
|
3020201040211120,
|
|
3020201040211020,
|
|
3020201040211120,
|
|
3022201022201022,
|
|
2010222211112211,
|
|
2011102011104011,
|
|
10401110303000
|
|
#GOGOSTART
|
|
40,
|
|
|
|
000000100100200000100000000000100000000020200000,
|
|
0010222010112010,
|
|
100000100100200000100000000000100100000020200000,
|
|
000000100000200020002000100010001000200020002000,
|
|
101010100000200200100100200000200200200000100000,
|
|
000100222200100100200100,
|
|
0011220211221040,
|
|
04040403,
|
|
|
|
0010201210102010,
|
|
0010201211102010,
|
|
01210223,
|
|
0011221210110120,
|
|
000010001000100010002000200020002000100100100100,
|
|
2011112222111120,
|
|
000000100100202020200000100200200100200200100000,
|
|
1111111120101020,
|
|
|
|
0020001110202010,
|
|
00221011201010
|
|
#GOGOEND
|
|
40,
|
|
|
|
#BARLINEOFF
|
|
#SCROLL 0.5
|
|
#MEASURE 8/4
|
|
00000010
|
|
00202011,
|
|
#BARLINEON
|
|
00000010
|
|
00202001,
|
|
01
|
|
22,
|
|
1000000000000022
|
|
2000000020000000,
|
|
|
|
#MEASURE 4/4
|
|
1
|
|
#SCROLL 0.51
|
|
10
|
|
#SCROLL 0.52
|
|
1
|
|
#SCROLL 0.53
|
|
10
|
|
#SCROLL 0.54
|
|
1
|
|
#SCROLL 0.55
|
|
1,
|
|
0
|
|
#SCROLL 0.56
|
|
1
|
|
#SCROLL 0.57
|
|
10
|
|
#SCROLL 0.58
|
|
1
|
|
#SCROLL 0.59
|
|
210,
|
|
#SCROLL 0.61
|
|
1
|
|
#SCROLL 0.62
|
|
12
|
|
#SCROLL 0.63
|
|
1
|
|
#SCROLL 0.64
|
|
1
|
|
#SCROLL 0.65
|
|
2
|
|
#SCROLL 0.66
|
|
11,
|
|
#SCROLL 0.67
|
|
20
|
|
#SCROLL 0.68
|
|
11
|
|
#SCROLL 0.69
|
|
10
|
|
#SCROLL 0.7
|
|
20
|
|
#SCROLL 0.71
|
|
11
|
|
#SCROLL 0.72
|
|
20
|
|
#SCROLL 0.73
|
|
1000,
|
|
#SCROLL 0.74
|
|
10
|
|
#SCROLL 0.75
|
|
10
|
|
#SCROLL 0.76
|
|
20
|
|
#SCROLL 0.77
|
|
11
|
|
#SCROLL 0.78
|
|
10
|
|
#SCROLL 0.79
|
|
22
|
|
#SCROLL 0.8
|
|
11
|
|
#SCROLL 0.81
|
|
10,
|
|
#SCROLL 0.82
|
|
20
|
|
#SCROLL 0.83
|
|
10
|
|
#SCROLL 0.84
|
|
10
|
|
#SCROLL 0.85
|
|
22
|
|
#SCROLL 0.86
|
|
11
|
|
#SCROLL 0.87
|
|
20
|
|
#SCROLL 0.88
|
|
11
|
|
#SCROLL 0.89
|
|
20,
|
|
#SCROLL 0.9
|
|
20
|
|
#SCROLL 0.91
|
|
10
|
|
#SCROLL 0.93
|
|
10
|
|
#SCROLL 0.94
|
|
20
|
|
#SCROLL 0.95
|
|
10
|
|
#SCROLL 0.96
|
|
11
|
|
#SCROLL 0.97
|
|
22
|
|
#SCROLL 0.98
|
|
10,
|
|
#SCROLL 1
|
|
11
|
|
#SCROLL 1.01
|
|
22
|
|
#SCROLL 1.02
|
|
10
|
|
#SCROLL 1.03
|
|
11
|
|
#SCROLL 1.05
|
|
22
|
|
#SCROLL 1.06
|
|
11
|
|
#SCROLL 1.07
|
|
11
|
|
#SCROLL 1.09
|
|
22,
|
|
|
|
#SCROLL 1.1
|
|
#GOGOSTART
|
|
1010201110201111,
|
|
2010102211201122,
|
|
1010201110221110,
|
|
2211102211201120,
|
|
2010102110102211,
|
|
1020111122111110,
|
|
44478044,
|
|
400700800000220022001100,
|
|
|
|
|
|
#END
|
|
|
|
|
|
COURSE:Hard
|
|
LEVEL:8
|
|
BALLOON:2
|
|
SCOREINIT:450
|
|
SCOREDIFF:120
|
|
|
|
#START
|
|
#MEASURE 8/4
|
|
#SCROLL 0.5
|
|
0122,
|
|
100000002000200
|
|
#SCROLL 0.6
|
|
3,
|
|
#MEASURE 4/4
|
|
0010101
|
|
#SCROLL 0.75
|
|
3,
|
|
0010101
|
|
#SCROLL 0.9
|
|
3,
|
|
00100100100100
|
|
#SCROLL 1.1
|
|
30,
|
|
|
|
00200202,
|
|
02220220,
|
|
10200202,
|
|
02220220,
|
|
10102101,
|
|
01112110,
|
|
10102101,
|
|
01112110,
|
|
|
|
10200202,
|
|
02220220,
|
|
10100101,
|
|
22
|
|
#GOGOSTART
|
|
30,
|
|
#GOGOEND
|
|
#SCROLL 1
|
|
22222220,
|
|
22230000,
|
|
|
|
#SCROLL 0.75
|
|
200000300002,
|
|
0230,
|
|
200200300002,
|
|
0230,
|
|
1110,
|
|
101100100000,
|
|
101100101100,
|
|
100010100070000000800
|
|
#SCROLL 1
|
|
300,
|
|
|
|
01121121,
|
|
01210120,
|
|
10201121,
|
|
12112110,
|
|
12212212,
|
|
21221223,
|
|
01220122,
|
|
01114400,
|
|
|
|
1
|
|
#SCROLL 0.96
|
|
10
|
|
#SCROLL 0.88
|
|
1
|
|
#SCROLL 0.84
|
|
10
|
|
#SCROLL 0.77
|
|
1
|
|
#SCROLL 0.74
|
|
1,
|
|
#SCROLL 0.71
|
|
0
|
|
#SCROLL 0.68
|
|
1
|
|
#SCROLL 0.65
|
|
10
|
|
#SCROLL 0.59
|
|
1000,
|
|
#SCROLL 0.5
|
|
2
|
|
#SCROLL 0.52
|
|
20
|
|
#SCROLL 0.57
|
|
2
|
|
#SCROLL 0.59
|
|
20
|
|
#SCROLL 0.65
|
|
2
|
|
#SCROLL 0.68
|
|
2,
|
|
#SCROLL 0.71
|
|
0
|
|
#SCROLL 0.74
|
|
2
|
|
#SCROLL 0.77
|
|
20
|
|
#SCROLL 0.84
|
|
2000,
|
|
#SCROLL 1
|
|
1
|
|
#SCROLL 0.96
|
|
10
|
|
#SCROLL 0.88
|
|
1
|
|
#SCROLL 0.84
|
|
10
|
|
#SCROLL 0.77
|
|
1
|
|
#SCROLL 0.74
|
|
1,
|
|
#SCROLL 0.71
|
|
0
|
|
#SCROLL 0.68
|
|
1
|
|
#SCROLL 0.65
|
|
10
|
|
#SCROLL 0.59
|
|
100
|
|
#SCROLL 0.52
|
|
2,
|
|
#SCROLL 0.5
|
|
0
|
|
#SCROLL 0.52
|
|
2
|
|
#SCROLL 0.55
|
|
20
|
|
#SCROLL 0.59
|
|
2
|
|
#SCROLL 0.62
|
|
20
|
|
#SCROLL 0.68
|
|
2,
|
|
#SCROLL 0.71
|
|
20
|
|
#SCROLL 0.77
|
|
2
|
|
#SCROLL 0.8
|
|
20
|
|
#SCROLL 0.88
|
|
2
|
|
#SCROLL 0.92
|
|
20,
|
|
|
|
#SCROLL 1
|
|
1
|
|
#SCROLL 0.96
|
|
10
|
|
#SCROLL 0.88
|
|
1
|
|
#SCROLL 0.84
|
|
10
|
|
#SCROLL 0.77
|
|
1
|
|
#SCROLL 0.74
|
|
1,
|
|
#SCROLL 0.71
|
|
0
|
|
#SCROLL 0.68
|
|
1
|
|
#SCROLL 0.65
|
|
10
|
|
#SCROLL 0.59
|
|
1000,
|
|
#SCROLL 0.5
|
|
2
|
|
#SCROLL 0.52
|
|
20
|
|
#SCROLL 0.57
|
|
2
|
|
#SCROLL 0.59
|
|
20
|
|
#SCROLL 0.65
|
|
2
|
|
#SCROLL 0.68
|
|
2,
|
|
#SCROLL 0.71
|
|
0
|
|
#SCROLL 0.74
|
|
2
|
|
#SCROLL 0.77
|
|
20
|
|
#SCROLL 0.84
|
|
2
|
|
#SCROLL 0.88
|
|
2
|
|
#SCROLL 0.92
|
|
0
|
|
#SCROLL 0.96
|
|
2,
|
|
#SCROLL 1
|
|
1000201020111000,
|
|
1000201020111000,
|
|
1000201020111000,
|
|
1000201020111000,
|
|
|
|
3000201040111000,
|
|
3000201040111000,
|
|
3000201040111000,
|
|
3000201040111000,
|
|
30211211,
|
|
2010102020111000,
|
|
30230230,
|
|
2302330
|
|
#GOGOSTART
|
|
4,
|
|
|
|
01110102,
|
|
0010111020222020,
|
|
1011101000101020,
|
|
000100100000202020200000,
|
|
1011100020222020,
|
|
0010111010101020,
|
|
0010110110101040,
|
|
04040403,
|
|
|
|
0010201110102010,
|
|
0010201110102010,
|
|
01230303,
|
|
0010101010110110,
|
|
000111100100,
|
|
2022202010101020,
|
|
0011101011101010,
|
|
2022202010101020,
|
|
|
|
0010001110202010,
|
|
00222022201010
|
|
#GOGOEND
|
|
40,
|
|
|
|
#BARLINEOFF
|
|
#SCROLL 0.5
|
|
#MEASURE 8/4
|
|
00000010
|
|
00202022,
|
|
#BARLINEON
|
|
00000010
|
|
00101001,
|
|
01
|
|
22,
|
|
10
|
|
22,
|
|
|
|
#MEASURE 4/4
|
|
1
|
|
#SCROLL 0.51
|
|
10
|
|
#SCROLL 0.52
|
|
1
|
|
#SCROLL 0.53
|
|
10
|
|
#SCROLL 0.54
|
|
1
|
|
#SCROLL 0.55
|
|
1,
|
|
0
|
|
#SCROLL 0.56
|
|
1
|
|
#SCROLL 0.57
|
|
10
|
|
#SCROLL 0.58
|
|
10
|
|
#SCROLL 0.59
|
|
10,
|
|
#SCROLL 0.61
|
|
2
|
|
#SCROLL 0.62
|
|
20
|
|
#SCROLL 0.63
|
|
2
|
|
#SCROLL 0.64
|
|
20
|
|
#SCROLL 0.66
|
|
22,
|
|
#SCROLL 0.67
|
|
0
|
|
#SCROLL 0.68
|
|
2
|
|
#SCROLL 0.69
|
|
20
|
|
#SCROLL 0.71
|
|
20
|
|
#SCROLL 0.73
|
|
20,
|
|
#SCROLL 0.74
|
|
1
|
|
#SCROLL 0.75
|
|
1
|
|
#SCROLL 0.76
|
|
2
|
|
#SCROLL 0.77
|
|
1
|
|
#SCROLL 0.78
|
|
1
|
|
#SCROLL 0.79
|
|
2
|
|
#SCROLL 0.8
|
|
1
|
|
#SCROLL 0.81
|
|
1,
|
|
#SCROLL 0.82
|
|
2
|
|
#SCROLL 0.83
|
|
1
|
|
#SCROLL 0.84
|
|
1
|
|
#SCROLL 0.85
|
|
2
|
|
#SCROLL 0.86
|
|
1
|
|
#SCROLL 0.87
|
|
1
|
|
#SCROLL 0.88
|
|
20,
|
|
#SCROLL 0.9
|
|
1
|
|
#SCROLL 0.91
|
|
2
|
|
#SCROLL 0.93
|
|
2
|
|
#SCROLL 0.94
|
|
1
|
|
#SCROLL 0.95
|
|
2
|
|
#SCROLL 0.96
|
|
2
|
|
#SCROLL 0.97
|
|
1
|
|
#SCROLL 0.98
|
|
2,
|
|
#SCROLL 1
|
|
2
|
|
#SCROLL 1.01
|
|
1
|
|
#SCROLL 1.02
|
|
2
|
|
#SCROLL 1.03
|
|
2
|
|
#SCROLL 1.05
|
|
1
|
|
#SCROLL 1.06
|
|
2
|
|
#SCROLL 1.07
|
|
20,
|
|
|
|
#SCROLL 1.1
|
|
#GOGOSTART
|
|
11211211,
|
|
21121120,
|
|
11211211,
|
|
21121120,
|
|
12212212,
|
|
21221220,
|
|
33330033,
|
|
300300000000400040004000,
|
|
|
|
,
|
|
,
|
|
,
|
|
#END
|
|
|
|
COURSE:Normal
|
|
LEVEL:7
|
|
BALLOON:5,5,5,19,19,4
|
|
SCOREINIT:800
|
|
SCOREDIFF:245
|
|
|
|
#START
|
|
#MEASURE 8/4
|
|
#SCROLL 0.5
|
|
0111,
|
|
100000002000200
|
|
#SCROLL 0.6
|
|
7,
|
|
#MEASURE 4/4
|
|
0000008
|
|
#SCROLL 0.75
|
|
7,
|
|
0000008
|
|
#SCROLL 0.9
|
|
7,
|
|
0000008
|
|
#SCROLL 1.1
|
|
9,
|
|
|
|
,
|
|
,
|
|
9008,
|
|
,
|
|
32,
|
|
0120,
|
|
12,
|
|
0120,
|
|
|
|
7,
|
|
,
|
|
0008,
|
|
33
|
|
#GOGOSTART
|
|
30,
|
|
#GOGOEND
|
|
#SCROLL 1
|
|
,
|
|
11110000,
|
|
|
|
#SCROLL 0.75
|
|
11,
|
|
0220,
|
|
12,
|
|
0110,
|
|
11,
|
|
0220,
|
|
11,
|
|
7000008
|
|
#SCROLL 1
|
|
3,
|
|
|
|
00101011,
|
|
00220000,
|
|
10101011,
|
|
00220000,
|
|
10010010,
|
|
01001003,
|
|
00220022,
|
|
00004400,
|
|
|
|
3,
|
|
#SCROLL 0.71
|
|
,
|
|
#SCROLL 0.5
|
|
3,
|
|
#SCROLL 0.71
|
|
,
|
|
#SCROLL 1
|
|
3,
|
|
#SCROLL 0.71
|
|
,
|
|
#SCROLL 0.5
|
|
3,
|
|
#SCROLL 0.71
|
|
,
|
|
#SCROLL 1
|
|
3,
|
|
#SCROLL 0.71
|
|
4,
|
|
#SCROLL 0.5
|
|
3,
|
|
#SCROLL 0.71
|
|
4,
|
|
#SCROLL 1
|
|
1012,
|
|
1012,
|
|
1012,
|
|
1012,
|
|
|
|
3032,
|
|
3032,
|
|
3032,
|
|
3032,
|
|
30010010,
|
|
01002020,
|
|
30030030,
|
|
0300440
|
|
#GOGOSTART
|
|
4,
|
|
|
|
00110101,
|
|
00220202,
|
|
00110101,
|
|
0222,
|
|
10001101,
|
|
01002202,
|
|
02001101,
|
|
01010103,
|
|
|
|
00102011,
|
|
01102011,
|
|
01110303,
|
|
02202011,
|
|
0120,
|
|
10101011,
|
|
0120,
|
|
10101011,
|
|
|
|
01002202,
|
|
0110100
|
|
#GOGOEND
|
|
4,
|
|
|
|
#BARLINEOFF
|
|
#SCROLL 0.5
|
|
#MEASURE 8/4
|
|
0001
|
|
0110,
|
|
#BARLINEON
|
|
0001
|
|
0110,
|
|
01
|
|
11,
|
|
10
|
|
22,
|
|
|
|
#MEASURE 4/4
|
|
100
|
|
#SCROLL 0.52
|
|
100
|
|
#SCROLL 0.54
|
|
10,
|
|
#SCROLL 0.55
|
|
0
|
|
#SCROLL 0.56
|
|
100
|
|
#SCROLL 0.58
|
|
2000,
|
|
#SCROLL 0.61
|
|
100
|
|
#SCROLL 0.63
|
|
100
|
|
#SCROLL 0.66
|
|
10,
|
|
#SCROLL 0.67
|
|
0
|
|
#SCROLL 0.68
|
|
100
|
|
#SCROLL 0.71
|
|
2000,
|
|
#SCROLL 0.74
|
|
100
|
|
#SCROLL 0.77
|
|
100
|
|
#SCROLL 0.8
|
|
10,
|
|
#SCROLL 0.82
|
|
0
|
|
#SCROLL 0.83
|
|
100
|
|
#SCROLL 0.86
|
|
2000,
|
|
#SCROLL 0.9
|
|
100
|
|
#SCROLL 0.94
|
|
100
|
|
#SCROLL 0.97
|
|
10,
|
|
#SCROLL 1
|
|
0
|
|
#SCROLL 1.01
|
|
100
|
|
#SCROLL 1.05
|
|
2000,
|
|
|
|
#SCROLL 1.1
|
|
#GOGOSTART
|
|
10010010,
|
|
01002000,
|
|
10010010,
|
|
01002000,
|
|
10010010,
|
|
01002000,
|
|
3003,
|
|
04,
|
|
|
|
,
|
|
,
|
|
,
|
|
#END
|
|
|
|
COURSE:Easy
|
|
LEVEL:4
|
|
BALLOON:3,3,3,16,15,20,20,4,4,29
|
|
SCOREINIT:880
|
|
SCOREDIFF:325
|
|
|
|
#START
|
|
#MEASURE 8/4
|
|
01
|
|
11,
|
|
10000000
|
|
20002007,
|
|
#MEASURE 4/4
|
|
00000087,
|
|
00000087,
|
|
00000089,
|
|
|
|
,
|
|
,
|
|
9008,
|
|
,
|
|
32,
|
|
02,
|
|
02,
|
|
02,
|
|
|
|
7,
|
|
,
|
|
0008,
|
|
33
|
|
#GOGOSTART
|
|
30,
|
|
#GOGOEND
|
|
,
|
|
,
|
|
|
|
32,
|
|
02,
|
|
02,
|
|
02,
|
|
02,
|
|
02,
|
|
11,
|
|
10000003,
|
|
|
|
00001001,
|
|
,
|
|
10001001,
|
|
,
|
|
7,
|
|
,
|
|
,
|
|
8,
|
|
|
|
3,
|
|
,
|
|
3,
|
|
,
|
|
4,
|
|
,
|
|
4,
|
|
,
|
|
|
|
3,
|
|
,
|
|
3,
|
|
,
|
|
11,
|
|
11,
|
|
1,
|
|
1,
|
|
|
|
22,
|
|
22,
|
|
22,
|
|
22,
|
|
7,
|
|
,
|
|
,
|
|
8000000
|
|
#GOGOSTART
|
|
3,
|
|
|
|
00300001,
|
|
00100002,
|
|
00200001,
|
|
0700,
|
|
80001001,
|
|
00002002,
|
|
00001007,
|
|
00000803,
|
|
|
|
00300001,
|
|
00100002,
|
|
00200001,
|
|
00100009,
|
|
,
|
|
,
|
|
,
|
|
,
|
|
|
|
,
|
|
8000000
|
|
#GOGOEND
|
|
4,
|
|
|
|
#BARLINEOFF
|
|
#MEASURE 8/4
|
|
0000
|
|
0110,
|
|
#BARLINEON
|
|
0000
|
|
0110,
|
|
01
|
|
11,
|
|
10
|
|
22,
|
|
|
|
#MEASURE 4/4
|
|
3001,
|
|
02,
|
|
1001,
|
|
02,
|
|
1001,
|
|
02,
|
|
1001,
|
|
02,
|
|
|
|
#GOGOSTART
|
|
10010010,
|
|
02,
|
|
10010010,
|
|
02,
|
|
10010010,
|
|
02,
|
|
3003,
|
|
04,
|
|
|
|
,
|
|
,
|
|
,
|
|
#END |