1267 lines
10 KiB
Plaintext
1267 lines
10 KiB
Plaintext
//TJADB Project
|
|
TITLE:Shinra Banshou
|
|
TITLEJA:森羅万象
|
|
SUBTITLE:--Sakuzyo
|
|
SUBTITLEJA:削除
|
|
BPM:290
|
|
WAVE:Shinra Banshou.ogg
|
|
OFFSET:-2.138
|
|
DEMOSTART:97.682
|
|
|
|
COURSE:Oni
|
|
LEVEL:10
|
|
BALLOON:3,3,7,7,7,7,7,7,7,7,7,7,7,7,18,18,18
|
|
SCOREINIT:360
|
|
SCOREDIFF:85
|
|
|
|
|
|
#START
|
|
|
|
|
|
6,
|
|
,
|
|
,
|
|
00000008,
|
|
,
|
|
|
|
#BRANCHSTART r,40,60
|
|
#N
|
|
30300222,
|
|
00000222,
|
|
100100000222,
|
|
20202110,
|
|
30300222,
|
|
00101222,
|
|
1000100011101000,
|
|
10102222,
|
|
|
|
30300222,
|
|
00000222,
|
|
100100000222,
|
|
20202110,
|
|
30300022,
|
|
1220,
|
|
1000100011101000,
|
|
10102222,
|
|
|
|
10010222,
|
|
20010212,
|
|
10010122,
|
|
20010222,
|
|
10010122,
|
|
20010212,
|
|
10001222,
|
|
#BPMCHANGE 292.98
|
|
#SCROLL 0.98
|
|
20221020,
|
|
#BPMCHANGE 290
|
|
#SCROLL 0.99
|
|
10001122,
|
|
10102222,
|
|
10001122,
|
|
10102222,
|
|
100000200222,
|
|
100000200222,
|
|
5,
|
|
00000800,
|
|
|
|
#E
|
|
30300222,
|
|
00000222,
|
|
100100000222,
|
|
20202110,
|
|
30300222,
|
|
00101222,
|
|
1000100011101000,
|
|
102020102020100200200200,
|
|
|
|
30300222,
|
|
00000222,
|
|
100100000222,
|
|
20202110,
|
|
30300022,
|
|
1220,
|
|
1000100011101000,
|
|
102020102020100200200200,
|
|
|
|
10010222,
|
|
20010212,
|
|
10010122,
|
|
20010222,
|
|
10010122,
|
|
20010212,
|
|
10001222,
|
|
#BPMCHANGE 292.98
|
|
#SCROLL 0.98
|
|
20221020,
|
|
#BPMCHANGE 290
|
|
#SCROLL 0.99
|
|
10201122,
|
|
10102222,
|
|
10201122,
|
|
10102222,
|
|
100111200222,
|
|
100111200222,
|
|
5,
|
|
00000800,
|
|
|
|
#M
|
|
30300222,
|
|
00000222,
|
|
100100000222,
|
|
20202110,
|
|
30300222,
|
|
00101222,
|
|
100000000000100000000000100100100100200020002000,
|
|
102020102020100200200200,
|
|
|
|
30300222,
|
|
00000222,
|
|
100100000222,
|
|
20202110,
|
|
30300022,
|
|
222222222222,
|
|
100000000000100000000000100100100100200020002000,
|
|
102020102020100200200200,
|
|
|
|
10010222,
|
|
20010212,
|
|
10010122,
|
|
20010222,
|
|
10010122,
|
|
20010212,
|
|
10001222,
|
|
#BPMCHANGE 292.98
|
|
#SCROLL 0.98
|
|
2000202010002220,
|
|
#BPMCHANGE 290
|
|
#SCROLL 0.99
|
|
10201122,
|
|
1000100022202020,
|
|
1000200010102222,
|
|
1000100022202020,
|
|
100200101010200100202020,
|
|
100200101010200100202020,
|
|
5,
|
|
00000800,
|
|
|
|
#SECTION
|
|
#BRANCHSTART p,75,95
|
|
#N
|
|
#BPMCHANGE 288.57
|
|
#SCROLL 1
|
|
40202220,
|
|
00122220,
|
|
#BPMCHANGE 290
|
|
22001100,
|
|
#MEASURE 2/4
|
|
2211,
|
|
|
|
#MEASURE 4/4
|
|
40002122,
|
|
10211211,
|
|
10012211,
|
|
20210220,
|
|
10222210,
|
|
12222120,
|
|
10100220,
|
|
10220220,
|
|
|
|
10102220,
|
|
12222210,
|
|
10010010,
|
|
33030130,
|
|
10222210,
|
|
12222120,
|
|
12020210,
|
|
22122120,
|
|
|
|
10120222,
|
|
10210212,
|
|
10120222,
|
|
1122,
|
|
10010220,
|
|
10010220,
|
|
12101020,
|
|
10200212,
|
|
|
|
10120222,
|
|
10210212,
|
|
10120221,
|
|
2122,
|
|
10010220,
|
|
10010220,
|
|
12101020,
|
|
10212212,
|
|
|
|
1,
|
|
0022,
|
|
22,
|
|
22,
|
|
1,
|
|
0022,
|
|
22,
|
|
22,
|
|
|
|
10010000,
|
|
21021000,
|
|
02102120,
|
|
01121120,
|
|
21201120,
|
|
11202120,
|
|
11201120,
|
|
21201020,
|
|
|
|
0030030040000400,
|
|
0030030040000400,
|
|
0030030040000400,
|
|
41112221,
|
|
|
|
#E
|
|
#BPMCHANGE 288.57
|
|
#SCROLL 1
|
|
40202220,
|
|
00122220,
|
|
#BPMCHANGE 290
|
|
22001100,
|
|
#MEASURE 2/4
|
|
2211,
|
|
|
|
#MEASURE 4/4
|
|
40002122,
|
|
1000201110201010,
|
|
10012211,
|
|
201010200100000200200000,
|
|
1000222020201000,
|
|
1022202020101000,
|
|
10708220,
|
|
11221220,
|
|
|
|
1000100022202000,
|
|
1022202020202000,
|
|
10210210,
|
|
33030130,
|
|
1000222020201000,
|
|
1022202020101000,
|
|
12002110,
|
|
22122121,
|
|
|
|
10120222,
|
|
10210212,
|
|
10120222,
|
|
10102122,
|
|
1010201000222020,
|
|
10210210,
|
|
1020100011101000,
|
|
102020102020100200100200,
|
|
|
|
10120222,
|
|
10210212,
|
|
10120222,
|
|
2122,
|
|
10210221,
|
|
10210220,
|
|
1020100011101000,
|
|
102020102020100200100200,
|
|
|
|
10002002,
|
|
2022,
|
|
2120,
|
|
2120,
|
|
10221002,
|
|
1120,
|
|
2120,
|
|
2120,
|
|
|
|
10010111,
|
|
21122110,
|
|
02102211,
|
|
1022201020102000,
|
|
21201120,
|
|
11202120,
|
|
11201120,
|
|
21201120,
|
|
|
|
0030030040000400,
|
|
0030030040000400,
|
|
0030030040000400,
|
|
41112221,
|
|
|
|
#M
|
|
#BPMCHANGE 288.57
|
|
#SCROLL 1
|
|
40202220,
|
|
00122220,
|
|
#BPMCHANGE 290
|
|
220200000000110100000000,
|
|
#MEASURE 2/4
|
|
220200110100,
|
|
|
|
#MEASURE 4/4
|
|
4000000020102220,
|
|
1000201111201010,
|
|
1000001120201010,
|
|
200010001000200000100000000000200000200200200000,
|
|
1000222020201010,
|
|
1022202020102010,
|
|
10708220,
|
|
1010222010202020,
|
|
|
|
1000100022202010,
|
|
1022202020201010,
|
|
1000221000221000,
|
|
33030130,
|
|
1000222220201010,
|
|
1022222020102010,
|
|
1020000022101010,
|
|
22122121,
|
|
|
|
10120222,
|
|
10210212,
|
|
10120222,
|
|
10102122,
|
|
1210201000222020,
|
|
10210210,
|
|
100000200000100000000000100100100100200020002000,
|
|
102020102020100200100200,
|
|
|
|
10120222,
|
|
10210212,
|
|
10120221,
|
|
2122,
|
|
10210221,
|
|
10210220,
|
|
100000200000100000000000100100100100200020002000,
|
|
102020102020100200100200,
|
|
|
|
10122012,
|
|
2022,
|
|
2120,
|
|
2120,
|
|
12221012,
|
|
10112020,
|
|
2120,
|
|
2120,
|
|
|
|
1000001000111111,
|
|
21122112,
|
|
1022101020211010,
|
|
1021201020102220,
|
|
21201120,
|
|
11202120,
|
|
11201120,
|
|
200000100000200000000000100100100100200020002000,
|
|
|
|
0030030040000400,
|
|
0030030040000400,
|
|
0030030040000400,
|
|
41112221,
|
|
|
|
#SECTION
|
|
#BRANCHSTART p,75,95
|
|
#N
|
|
7008,
|
|
7008,
|
|
7008,
|
|
7008,
|
|
50000008,
|
|
50000008,
|
|
50000008,
|
|
#BPMCHANGE 294.63
|
|
#SCROLL 0.98
|
|
50000008,
|
|
#BPMCHANGE 290
|
|
#SCROLL 1
|
|
3,
|
|
2222,
|
|
2,
|
|
2222,
|
|
22,
|
|
21,
|
|
1,
|
|
2,
|
|
|
|
1100,
|
|
1122,
|
|
1100,
|
|
1122,
|
|
22,
|
|
22,
|
|
4,
|
|
11102211,
|
|
|
|
#E
|
|
7008,
|
|
7008,
|
|
7008,
|
|
7008,
|
|
12212211,
|
|
12212212,
|
|
12212212,
|
|
#BPMCHANGE 294.63
|
|
#SCROLL 0.98
|
|
1022201022201020,
|
|
#BPMCHANGE 290
|
|
#SCROLL 1
|
|
3,
|
|
2222,
|
|
2,
|
|
2222,
|
|
22,
|
|
21,
|
|
1,
|
|
2,
|
|
|
|
1100,
|
|
1122,
|
|
1100,
|
|
1122,
|
|
220000000000220000000000,
|
|
220000000000220000000000,
|
|
4,
|
|
11102211,
|
|
|
|
#M
|
|
7008,
|
|
7008,
|
|
7008,
|
|
7008,
|
|
12212211,
|
|
12212212,
|
|
1022201120221022,
|
|
#BPMCHANGE 294.63
|
|
#SCROLL 0.98
|
|
1022111122112220,
|
|
#BPMCHANGE 290
|
|
#SCROLL 1
|
|
3,
|
|
2222,
|
|
2,
|
|
2222,
|
|
22,
|
|
21,
|
|
1,
|
|
2,
|
|
|
|
1100,
|
|
1122,
|
|
1100,
|
|
1122,
|
|
220000000000220000000000,
|
|
220000000000220000000000,
|
|
4,
|
|
11102211,
|
|
|
|
#SECTION
|
|
#BRANCHSTART p,75,95
|
|
#N
|
|
#GOGOSTART
|
|
10210210,
|
|
11210120,
|
|
10112010,
|
|
11212120,
|
|
10211120,
|
|
12112010,
|
|
30222222,
|
|
22112210,
|
|
|
|
10112011,
|
|
02102010,
|
|
10212110,
|
|
11210110,
|
|
10112111,
|
|
41114022,
|
|
02221114,
|
|
0022,
|
|
|
|
10201120,
|
|
11211120,
|
|
10201120,
|
|
11211120,
|
|
10201120,
|
|
10211120,
|
|
41114110,
|
|
#GOGOEND
|
|
20202210,
|
|
|
|
30000222,
|
|
10002222,
|
|
10002022,
|
|
20221110,
|
|
40000222,
|
|
2200100020202020,
|
|
100000200222,
|
|
20201122,
|
|
|
|
300000200222,
|
|
20201122,
|
|
100000200222,
|
|
2222,
|
|
100100200222,
|
|
100100200222,
|
|
5,
|
|
0008,
|
|
#BPMCHANGE 287.77
|
|
40102220,
|
|
00122220,
|
|
#BPMCHANGE 290
|
|
22001100,
|
|
22112220,
|
|
22001100,
|
|
22112221,
|
|
22001100,
|
|
40002222,
|
|
|
|
7,
|
|
,
|
|
8,
|
|
|
|
|
|
#E
|
|
#GOGOSTART
|
|
10211210,
|
|
1010222010102000,
|
|
10112012,
|
|
11212120,
|
|
10211121,
|
|
1020111020102000,
|
|
32222222,
|
|
2020101022201010,
|
|
|
|
10112111,
|
|
12112122,
|
|
1020111020102020,
|
|
11211211,
|
|
10102111,
|
|
41114022,
|
|
02221114,
|
|
02102022,
|
|
|
|
1000200010102011,
|
|
11211120,
|
|
10201121,
|
|
2010200011102000,
|
|
1000200010102011,
|
|
11211120,
|
|
41114110,
|
|
#GOGOEND
|
|
20202211,
|
|
|
|
30000222,
|
|
10102222,
|
|
100000000000202020200200,
|
|
20221122,
|
|
40000222,
|
|
20102222,
|
|
100000202222,
|
|
20201122,
|
|
|
|
300000202222,
|
|
20201122,
|
|
100000222222,
|
|
2222,
|
|
100111200222,
|
|
100111200222,
|
|
5,
|
|
0008,
|
|
#BPMCHANGE 287.77
|
|
20102220,
|
|
00222220,
|
|
#BPMCHANGE 290
|
|
22001100,
|
|
22112220,
|
|
22001100,
|
|
22112221,
|
|
22001100,
|
|
40002222,
|
|
|
|
7,
|
|
,
|
|
8,
|
|
|
|
|
|
#M
|
|
#GOGOSTART
|
|
1000201011201000,
|
|
1010222010102020,
|
|
10112012,
|
|
102020100100200100200000,
|
|
1000221010102010,
|
|
1020111020102000,
|
|
3020222020202220,
|
|
2020101022221110,
|
|
|
|
1000111020101110,
|
|
1022101020102020,
|
|
1020111020102220,
|
|
1010221010201010,
|
|
1000100022101010,
|
|
41114022,
|
|
02221114,
|
|
02102022,
|
|
|
|
1000200010112011,
|
|
1010201011102010,
|
|
1000201010112010,
|
|
2010200011102010,
|
|
1000201010112011,
|
|
1010201011102010,
|
|
400100100100400100202020,
|
|
#GOGOEND
|
|
20202211,
|
|
|
|
30000222,
|
|
10102222,
|
|
100000000000202020200200,
|
|
20221122,
|
|
40000222,
|
|
20102222,
|
|
100000202222,
|
|
20201122,
|
|
|
|
300000202222,
|
|
20201122,
|
|
100000222222,
|
|
2222,
|
|
100200101010200100202020,
|
|
100200101010200100202020,
|
|
5,
|
|
0008,
|
|
#BPMCHANGE 287.77
|
|
20102220,
|
|
00222220,
|
|
#BPMCHANGE 290
|
|
220200000000110100000000,
|
|
220200110100200200200000,
|
|
220200000000110100000000,
|
|
220200110100200200200100,
|
|
220200000000110100000000,
|
|
40002222,
|
|
|
|
7,
|
|
,
|
|
8,
|
|
|
|
#BRANCHEND
|
|
|
|
|
|
#END
|
|
|
|
|
|
COURSE:Hard
|
|
LEVEL:8
|
|
BALLOON:26,6,6,6,6,18
|
|
SCOREINIT:390
|
|
SCOREDIFF:85
|
|
|
|
#START
|
|
7,
|
|
,
|
|
,
|
|
,
|
|
8,
|
|
|
|
30300222,
|
|
00000222,
|
|
1102,
|
|
20202110,
|
|
30300222,
|
|
00101222,
|
|
1112,
|
|
10102222,
|
|
|
|
30300222,
|
|
00000222,
|
|
1102,
|
|
20202110,
|
|
30300222,
|
|
00000222,
|
|
1112,
|
|
10102222,
|
|
|
|
10010222,
|
|
20010212,
|
|
10010122,
|
|
20010222,
|
|
10010122,
|
|
20010212,
|
|
10002222,
|
|
20221000,
|
|
|
|
10001122,
|
|
10102220,
|
|
10001122,
|
|
10102220,
|
|
100000200222,
|
|
100000200222,
|
|
5,
|
|
00000800,
|
|
|
|
40002220,
|
|
00222220,
|
|
22001100,
|
|
#MEASURE 2/4
|
|
2211,
|
|
|
|
#MEASURE 4/4
|
|
40002122,
|
|
10211211,
|
|
10012211,
|
|
20210220,
|
|
10222210,
|
|
12221110,
|
|
10100220,
|
|
10220220,
|
|
|
|
10102221,
|
|
10222110,
|
|
10010010,
|
|
33030130,
|
|
10222210,
|
|
12221110,
|
|
12020210,
|
|
22122120,
|
|
|
|
10010222,
|
|
10010212,
|
|
10010222,
|
|
1122,
|
|
10210221,
|
|
10210220,
|
|
12101020,
|
|
10202212,
|
|
|
|
10010222,
|
|
10010212,
|
|
10010221,
|
|
2122,
|
|
10210221,
|
|
10210220,
|
|
12101020,
|
|
10212210,
|
|
|
|
1,
|
|
0022,
|
|
22,
|
|
22,
|
|
1,
|
|
0022,
|
|
22,
|
|
22,
|
|
|
|
10010000,
|
|
2,
|
|
02102120,
|
|
12021122,
|
|
21201120,
|
|
11202120,
|
|
11201120,
|
|
21201020,
|
|
|
|
0030030040000400,
|
|
0030030040000400,
|
|
0030030040000400,
|
|
40102222,
|
|
|
|
7008,
|
|
7008,
|
|
7008,
|
|
7008,
|
|
50000008,
|
|
50000008,
|
|
50000008,
|
|
50000008,
|
|
|
|
3,
|
|
2222,
|
|
2,
|
|
2222,
|
|
22,
|
|
21,
|
|
1,
|
|
2,
|
|
|
|
1100,
|
|
1122,
|
|
1100,
|
|
1122,
|
|
22,
|
|
22,
|
|
4,
|
|
11102211,
|
|
|
|
#GOGOSTART
|
|
10210210,
|
|
11210120,
|
|
10112010,
|
|
11212120,
|
|
10211120,
|
|
12112010,
|
|
30222222,
|
|
22112211,
|
|
|
|
10112011,
|
|
02102010,
|
|
10212111,
|
|
11210110,
|
|
10112111,
|
|
41114022,
|
|
02221114,
|
|
0022,
|
|
|
|
10201120,
|
|
11211120,
|
|
10201120,
|
|
11211120,
|
|
10201120,
|
|
10211120,
|
|
400100100100400100202020,
|
|
#GOGOEND
|
|
20202210,
|
|
|
|
30000222,
|
|
10002222,
|
|
100000000000202020200200,
|
|
20221110,
|
|
40000222,
|
|
20102222,
|
|
100000202222,
|
|
20201122,
|
|
|
|
300000202222,
|
|
20201122,
|
|
100000222222,
|
|
2222,
|
|
100100200222,
|
|
100100200222,
|
|
5,
|
|
0008,
|
|
|
|
20102220,
|
|
00222220,
|
|
22001100,
|
|
22112220,
|
|
22001100,
|
|
22112221,
|
|
22001100,
|
|
40002222,
|
|
|
|
7,
|
|
,
|
|
,
|
|
0008,
|
|
,
|
|
|
|
#END
|
|
|
|
COURSE:Normal
|
|
LEVEL:7
|
|
BALLOON:20,4,4,4,4,12
|
|
SCOREINIT:530
|
|
SCOREDIFF:136
|
|
|
|
#START
|
|
7,
|
|
,
|
|
,
|
|
,
|
|
8,
|
|
|
|
3300,
|
|
,
|
|
1100,
|
|
2220,
|
|
3300,
|
|
01,
|
|
1100,
|
|
2210,
|
|
|
|
3300,
|
|
,
|
|
1100,
|
|
2220,
|
|
3300,
|
|
,
|
|
1100,
|
|
2210,
|
|
|
|
10000100,
|
|
20000200,
|
|
10000100,
|
|
20000100,
|
|
10000100,
|
|
20000100,
|
|
11,
|
|
2220,
|
|
|
|
11,
|
|
2220,
|
|
11,
|
|
2220,
|
|
12,
|
|
12,
|
|
5,
|
|
00000800,
|
|
|
|
4,
|
|
,
|
|
21,
|
|
#MEASURE 2/4
|
|
21,
|
|
|
|
#MEASURE 4/4
|
|
4011,
|
|
1011,
|
|
11,
|
|
20200200,
|
|
12,
|
|
1220,
|
|
1,
|
|
1,
|
|
|
|
10102220,
|
|
1220,
|
|
10010010,
|
|
30030030,
|
|
12,
|
|
1220,
|
|
1110,
|
|
2220,
|
|
|
|
10010020,
|
|
20010020,
|
|
10010020,
|
|
2121,
|
|
10010010,
|
|
20020020,
|
|
1122,
|
|
1220,
|
|
|
|
10010020,
|
|
20010020,
|
|
10010020,
|
|
2122,
|
|
10010010,
|
|
20020020,
|
|
1122,
|
|
1220,
|
|
|
|
1,
|
|
0022,
|
|
22,
|
|
22,
|
|
1,
|
|
0022,
|
|
22,
|
|
22,
|
|
|
|
10010000,
|
|
2,
|
|
10010000,
|
|
22,
|
|
2212,
|
|
1222,
|
|
1212,
|
|
2212,
|
|
|
|
0030000040000400,
|
|
0030000040000400,
|
|
0030000040000400,
|
|
0022,
|
|
|
|
7008,
|
|
7008,
|
|
7008,
|
|
7008,
|
|
50000008,
|
|
50000008,
|
|
50000008,
|
|
50000008,
|
|
|
|
3,
|
|
2220,
|
|
2,
|
|
2220,
|
|
22,
|
|
21,
|
|
1,
|
|
2,
|
|
|
|
1,
|
|
1022,
|
|
1,
|
|
1022,
|
|
22,
|
|
22,
|
|
4,
|
|
12,
|
|
|
|
#GOGOSTART
|
|
10010000,
|
|
20010020,
|
|
1121,
|
|
11102020,
|
|
1022,
|
|
1202,
|
|
30222022,
|
|
20201110,
|
|
|
|
10000011,
|
|
11,
|
|
10000011,
|
|
1202,
|
|
10111000,
|
|
40104002,
|
|
02201024,
|
|
0022,
|
|
|
|
1212,
|
|
10201120,
|
|
1212,
|
|
10201120,
|
|
1212,
|
|
10201120,
|
|
40114010,
|
|
#GOGOEND
|
|
2220,
|
|
|
|
3,
|
|
1022,
|
|
1,
|
|
2011,
|
|
4,
|
|
2022,
|
|
1,
|
|
2012,
|
|
|
|
3,
|
|
2012,
|
|
1,
|
|
2222,
|
|
12,
|
|
12,
|
|
5,
|
|
0008,
|
|
|
|
2,
|
|
,
|
|
21,
|
|
20102220,
|
|
21,
|
|
20102220,
|
|
21,
|
|
40002220,
|
|
|
|
7,
|
|
,
|
|
,
|
|
0008,
|
|
,
|
|
|
|
#END
|
|
|
|
COURSE:Easy
|
|
LEVEL:5
|
|
BALLOON:15,3,3,3,3,7
|
|
SCOREINIT:540
|
|
SCOREDIFF:156
|
|
|
|
#START
|
|
7,
|
|
,
|
|
,
|
|
,
|
|
8,
|
|
|
|
3300,
|
|
,
|
|
1100,
|
|
2,
|
|
3300,
|
|
,
|
|
1100,
|
|
22,
|
|
|
|
3300,
|
|
,
|
|
1100,
|
|
2,
|
|
3300,
|
|
,
|
|
1100,
|
|
22,
|
|
|
|
1,
|
|
2,
|
|
1,
|
|
2,
|
|
1,
|
|
2,
|
|
1,
|
|
22,
|
|
|
|
1,
|
|
11,
|
|
1,
|
|
11,
|
|
1,
|
|
2,
|
|
5,
|
|
00000800,
|
|
|
|
4,
|
|
,
|
|
11,
|
|
#MEASURE 2/4
|
|
1,
|
|
|
|
#MEASURE 4/4
|
|
3,
|
|
,
|
|
,
|
|
2,
|
|
1,
|
|
1,
|
|
2,
|
|
2,
|
|
|
|
1,
|
|
,
|
|
,
|
|
3,
|
|
1,
|
|
1,
|
|
1,
|
|
,
|
|
|
|
1,
|
|
2,
|
|
1,
|
|
22,
|
|
1,
|
|
1,
|
|
1,
|
|
,
|
|
|
|
1,
|
|
2,
|
|
1,
|
|
22,
|
|
1,
|
|
1,
|
|
1,
|
|
,
|
|
|
|
1,
|
|
02,
|
|
22,
|
|
22,
|
|
1,
|
|
02,
|
|
22,
|
|
22,
|
|
|
|
10010000,
|
|
,
|
|
10010000,
|
|
,
|
|
21,
|
|
21,
|
|
21,
|
|
21,
|
|
|
|
0030000040000400,
|
|
0030000040000400,
|
|
0030000040000400,
|
|
02,
|
|
|
|
7008,
|
|
7008,
|
|
7008,
|
|
7008,
|
|
50000008,
|
|
50000008,
|
|
50000008,
|
|
50000008,
|
|
|
|
,
|
|
22,
|
|
2,
|
|
22,
|
|
2,
|
|
2,
|
|
2,
|
|
,
|
|
|
|
1,
|
|
11,
|
|
1,
|
|
11,
|
|
1,
|
|
1,
|
|
3,
|
|
,
|
|
|
|
#GOGOSTART
|
|
1001,
|
|
2002,
|
|
12,
|
|
12,
|
|
1001,
|
|
12,
|
|
32,
|
|
2021,
|
|
|
|
1001,
|
|
01,
|
|
1001,
|
|
01,
|
|
1,
|
|
44,
|
|
06000008,
|
|
02,
|
|
|
|
11,
|
|
22,
|
|
12,
|
|
12,
|
|
11,
|
|
22,
|
|
44,
|
|
#GOGOEND
|
|
2220,
|
|
|
|
3,
|
|
1,
|
|
1,
|
|
2,
|
|
4,
|
|
2,
|
|
1,
|
|
2,
|
|
|
|
3,
|
|
2,
|
|
1,
|
|
22,
|
|
12,
|
|
12,
|
|
5,
|
|
0008,
|
|
|
|
,
|
|
,
|
|
11,
|
|
1110,
|
|
11,
|
|
1110,
|
|
11,
|
|
4,
|
|
|
|
7,
|
|
,
|
|
,
|
|
0008,
|
|
,
|
|
|
|
#END |