Files
TJA-by-song-no/tja/888.tja
2026-03-07 15:37:31 +09:00

420 lines
5.7 KiB
Plaintext

//TJADB Project
TITLE:Classical Medley -Rock Version-
TITLEJA:クラシックメドレー「ロック編」
SUBTITLE:--Yuuji Masubuchi
BPM:145
WAVE:Classical Medley -Rock Version-.ogg
OFFSET:-1.747
DEMOSTART:85.755
COURSE:Oni
LEVEL:8
BALLOON:45
SCOREINIT:520
SCOREDIFF:133
#START
#MEASURE 3/4
0333,
#MEASURE 4/4
5,
#BPMCHANGE 146.34
#SCROLL 0.99
000000000008000000000000300000000000000000000000,
#BPMCHANGE 141.35
#SCROLL 1.03
0333,
#BPMCHANGE 146.19
#SCROLL 0.99
6,
000000000000000000000000000000000000000008000000,
#BPMCHANGE 145.4
#SCROLL 1
0300,
#BPMCHANGE 145.02
0000001122012010,
0000001120202210,
#BPMCHANGE 144.57
1111011110102001,
#BPMCHANGE 145
1111011110102000,
1111011110102001,
1111011110202100,
1111011110102001,
1111011110102000,
1111011110102001,
1111011022111122,
#BPMCHANGE 146.11
#SCROLL 0.99
1020202020202220,
#BPMCHANGE 143.91
#SCROLL 1.01
2022202020222021,
#BPMCHANGE 145
#SCROLL 1
1020202020222020,
#BPMCHANGE 146.24
#SCROLL 0.99
0210102220102201,
#BPMCHANGE 144.39
#SCROLL 1
1020202020202220,
2022202020222022,
#BPMCHANGE 144.62
2020122112211221,
#BPMCHANGE 145.92
#SCROLL 0.99
202020200100100100100200200000000000000000000000,
#BPMCHANGE 144.8
#SCROLL 1
1111011110102001,
#BPMCHANGE 144.83
1111011110102101,
1111011110102001,
#BPMCHANGE 145
100100100100000000000000000000001010200000000000,
#BPMCHANGE 145.12
1021021102112002,
1021021102112112,
#BPMCHANGE 145.58
1021021120202211,
#BPMCHANGE 144.19
#SCROLL 1.01
100000000000300000000000500000000000000008000000,
#GOGOSTART
#BPMCHANGE 145
#SCROLL 1
1011101110111011,
#BPMCHANGE 145.79
#SCROLL 0.99
1011101110111011,
#BPMCHANGE 144.8
#SCROLL 1
1011101110111011,
#BPMCHANGE 144.25
#SCROLL 1.01
1022201110222011,
#BPMCHANGE 146.51
#SCROLL 0.99
1011101110111011,
#BPMCHANGE 143.68
#SCROLL 1.01
1011101110112210,
#BPMCHANGE 145
#SCROLL 1
1010201210102012,
1011201220202222,
1020012010210120,
1020012010210120,
1020012010210120,
1020112111211120,
#BPMCHANGE 145.2
1020012010210120,
#BPMCHANGE 145.45
1020012010111111,
#BPMCHANGE 144.89
2011201120112011,
2011201120112011,
2111211121112111,
#BPMCHANGE 144.45
1111001111003000,
#GOGOEND
#BPMCHANGE 145.12
1112011120102001,
1112011120102101,
#BPMCHANGE 145
1112011120102001,
1112011120202101,
1112011120102001,
1112011120102101,
#BPMCHANGE 145.23
1112011120102001,
1112011120102101,
1112011120102001,
#BPMCHANGE 144.33
1011220202020101,
#BPMCHANGE 145
0211200220202112,
,
#BPMCHANGE 144.23
#SCROLL 1.01
0000000001001002,
#BPMCHANGE 146.22
#SCROLL 0.99
0020030000000000,
#BPMCHANGE 145
#SCROLL 1
7,
,
#BPMCHANGE 148
#SCROLL 0.98
83,
#END
COURSE:Hard
LEVEL:8
BALLOON:34
SCOREINIT:700
SCOREDIFF:190
#START
#MEASURE 3/4
0111,
#MEASURE 4/4
5,
0000000000000000000000000000000800000000000000000000000000000000,
0111,
6000000000000000,
0000000000000000000000000000000000000000000000000000000800000000,
0300,
,
,
1002001000002000,
1002001000002000,
1002001000002000,
1002001000102000,
1002001000002000,
1002001000002000,
1002001000002000,
1002003000000000,
02020202,
0020002000200201,
12020202,
0020122112211221,
12020202,
0020002000220022,
0020122112211221,
1000000000000000500000080000000030000000000000000000000000000000,
1002001000002000,
1002001000002000,
1002001000002000,
1111000000003000,
1002001002102000,
1002001002102010,
1002001010101111,
1000000000000000300000000000000050000000000000000008000000000000,//33
#GOGOSTART
1011101110111011,
1011101110111011,
1011101110111011,
1011101110111011,
1011101110111011,
1011101110111011,
1000200100102010,
2010201020201111,
1020012010200120,
1020012010200120,
1020012010200120,
1020012010210120,
1020012010200120,
1020012010111111,
2011201120112011,
2011201120112011,
2111211121112111,
1111001111003000,
#GOGOEND
1002001000002001,
1002001000002000,
1002001000002001,
1002001000102000,
1002001000002001,
1002001000002000,
1002001000002001,
1002001000102000,
1002001000002001,
1002001000102000,
1002001010101111,
,
,
0000030000000000,
7,
,
83,
#END
COURSE:Normal
LEVEL:5
BALLOON:30
SCOREINIT:840
SCOREDIFF:265
#START
#MEASURE 3/4
000100100100,
#MEASURE 4/4
5,
0000000000000000000000000000000800000000000000000000000000000000,
0111,
6000000000000000,
0000000000000000000000000000000000000000000000000008000000000000,
0300,
,
,
1002001000000000,
1002001000000000,
1002001000000000,
1002001000002000,
1002001000000000,
1002001000000000,
1002001000000000,
1002003000000000,
1,
00000202,
1,
00000202,
11,
1110,
1111,
1130,
1002001000000000,
1002001000000000,
1002001000000000,
1111000000003000,
1002001000002000,
1002001000002000,
1002001000002000,
3000000000000000300000000000000050000000000000000008000000000000,//33
#GOGOSTART
1111,
1111,
1111,
10101111,
1111,
1111,
0202,
0230,
12121212,
12121212,
12121212,
12121110,
12121212,
12121000,
2222,
2222,
21212121,
10010030,
#GOGOEND
1002001000000000,
1002001000000000,
1002001000000000,
1002001000002000,
1002001000000000,
1002001000000000,
1002001000000000,
1002001000002000,
1002001000000000,
1002001000002000,
1002001000001000,
,
,
0000030000000000,
7,
,
83,
#END
COURSE:Easy
LEVEL:4
BALLOON:20
SCOREINIT:760
SCOREDIFF:305
#START
#MEASURE 3/4
,
#MEASURE 4/4
5,
0000000000000000000000000000000800000000000000000000000000000000,
,
6000000000000000,
,
0000000000000008000000000000000000000000000000000000000000000000,
,
,
10010000,
10010000,
10010000,
10010020,
10010000,
10010000,
10010000,
10030000,
1,
2220,
1,
2220,
11,
1110,
1111,
1130,
10010000,
10010000,
10010000,
3002,
10010000,
10010020,
10010000,
5000000000000000000000000000000000000000000000080000000000000000,//33
#GOGOSTART
1110,
1110,
1110,
1111,
1110,
1110,
0202,
0230,
1212,
1212,
1212,
1230,
1212,
1210,
2222,
2220,
2121,
1003,
#GOGOEND
10010000,
10010000,
10010000,
10010020,
10010000,
10010000,
10010000,
10010020,
10010000,
10010020,
1011,
,
,
0000030000000000,
7,
,
83,
#END