934 lines
17 KiB
Plaintext
934 lines
17 KiB
Plaintext
//TJADB Project
|
|
TITLE:God knows...
|
|
TITLEJA:God knows…
|
|
SUBTITLE:--Satoru Kousaki feat. Aya Hirano/The Melancholy of Haruhi Suzumiya
|
|
SUBTITLEJA:「涼宮ハルヒの憂鬱」より
|
|
BPM:156.61
|
|
WAVE:God knows....ogg
|
|
OFFSET:-2.039
|
|
|
|
COURSE:Edit
|
|
LEVEL:9
|
|
BALLOON:6,6,24,8,6,10,10,74
|
|
SCOREINIT:310
|
|
SCOREDIFF:70
|
|
|
|
|
|
#START
|
|
|
|
|
|
#BARLINEOFF
|
|
#MEASURE 2/4
|
|
#SCROLL 0.95
|
|
500000000008
|
|
#BPMCHANGE 147.92
|
|
#SCROLL 1.01
|
|
000000000000,
|
|
#BARLINEON
|
|
#MEASURE 4/4
|
|
#BPMCHANGE 150.27
|
|
#SCROLL 0.99
|
|
200100100200100100200100100200100000100000200000,
|
|
#BPMCHANGE 150
|
|
#SCROLL 1
|
|
200100100200100100200100100200100000100000200000,
|
|
#BPMCHANGE 151.1
|
|
#SCROLL 0.99
|
|
200100100200100100200100100200100000100000200000,
|
|
#BPMCHANGE 149.53
|
|
#SCROLL 1
|
|
000000200000200000100000000000100000200200200000,
|
|
#BPMCHANGE 149.39
|
|
200100100200100100200100100200100000100000200000,
|
|
#BPMCHANGE 150.41
|
|
#SCROLL 0.99
|
|
200100100200100100200100100200100000100000200000,
|
|
#BPMCHANGE 149.93
|
|
#SCROLL 1
|
|
202010202010202010202010202010202010202010202010,
|
|
#BPMCHANGE 150.27
|
|
#SCROLL 0.99
|
|
200000200000200000700000000000000000800000000000,
|
|
#BPMCHANGE 149.39
|
|
#SCROLL 1
|
|
100000000000200000100100200000100200200000100100,
|
|
#BPMCHANGE 150
|
|
100000000000200000100100200000100200200000200200,
|
|
100000000000200000100100200000100200200000200000,
|
|
100000200200100000200200100000200200200000300000,
|
|
000000100000200000100100200000100200200000100100,
|
|
100000000000200000100100200000100200200000200000,
|
|
100000200200200000100100100000100000200200100000,
|
|
#BPMCHANGE 149.46
|
|
500008000000100200100000700000000000000000800000,
|
|
#BPMCHANGE 150.55
|
|
#SCROLL 0.99
|
|
100100100000200000100200100000200000100100200200,
|
|
#BPMCHANGE 150
|
|
#SCROLL 1
|
|
100100100000200000100200100000200200100100200200,
|
|
#BPMCHANGE 150.96
|
|
#SCROLL 0.99
|
|
100100100000200000100200100100200200100200200200,
|
|
#BPMCHANGE 149.46
|
|
#SCROLL 1
|
|
100200200200100100200200100100200200100200100200,
|
|
#BPMCHANGE 150.41
|
|
#SCROLL 0.99
|
|
100000100000200000100100200000200000100000200200,
|
|
#BPMCHANGE 150.27
|
|
100000200000200000100200200000200000100100200200,
|
|
#BPMCHANGE 149.53
|
|
#SCROLL 1
|
|
100100100100100100200200100100200200100100200200,
|
|
#BPMCHANGE 150.2
|
|
#SCROLL 0.99
|
|
100200200100200100200100200100200100200000000000,
|
|
#BPMCHANGE 148.79
|
|
#SCROLL 1
|
|
100000200100200000100200100000200000200000100000,
|
|
#BPMCHANGE 150.41
|
|
#SCROLL 0.99
|
|
100200100000200000100100200000200200100000200000,
|
|
#BPMCHANGE 150.68
|
|
100000200100200000100200100000200000200200100200,
|
|
#BPMCHANGE 150
|
|
#SCROLL 1
|
|
100000100000200200100000100200100000200200100200,
|
|
#BPMCHANGE 149.46
|
|
100000100000200100000100000200200000200200100000,
|
|
#BPMCHANGE 151.03
|
|
#SCROLL 0.99
|
|
200000200000100200000200000100100000100100200000,
|
|
#BPMCHANGE 149.86
|
|
#SCROLL 1
|
|
100100200200200200100100200100100200100100200200,
|
|
#BPMCHANGE 150.82
|
|
#SCROLL 0.99
|
|
100000000000000000000000000000000000000000000000,
|
|
|
|
#GOGOSTART
|
|
#BPMCHANGE 147.46
|
|
#SCROLL 1.01
|
|
100000100100200200100100000100100000200000100100,
|
|
#BPMCHANGE 151.37
|
|
#SCROLL 0.99
|
|
100000100100200200100100000200100000200000100100,
|
|
#BPMCHANGE 150.14
|
|
100000100100200200100100000100100000200000100100,
|
|
#BPMCHANGE 149.05
|
|
#SCROLL 1
|
|
100000100100200000200200100200200000200200200200,
|
|
#BPMCHANGE 150.48
|
|
#SCROLL 0.99
|
|
100000200100200000100200000200200000100000200200,
|
|
#BPMCHANGE 149.53
|
|
#SCROLL 1
|
|
100000200100200000100200000200200000100200200200,
|
|
#BPMCHANGE 151.51
|
|
#SCROLL 0.99
|
|
100000200100200000100200000200100000200200100000,
|
|
#BPMCHANGE 148.72
|
|
#SCROLL 1
|
|
000000200200200000300000000200100100200000100100,
|
|
#BPMCHANGE 150
|
|
100000100100200200100100000100100000200000100100,
|
|
100000100100200200100100000200100000200000100100,
|
|
100000100100200200100100000100100000200000100100,
|
|
100000100100200000200200100200200000200200200200,
|
|
100100100000200000500000000000000008000000200200,
|
|
100100100000200000500000000000000008000000100100,
|
|
200000100100200000100100200000100100200000100200,
|
|
200000100100200000100200200000100100200000200200,
|
|
#BPMCHANGE 150.62
|
|
#SCROLL 0.99
|
|
700000000000000000000000000000000000000000000000,
|
|
#BPMCHANGE 150.68
|
|
000000000000000000000000800000000000100100100100,
|
|
|
|
#GOGOEND
|
|
#BPMCHANGE 150
|
|
#SCROLL 1
|
|
200000200000200000200000200000200000200000200200,
|
|
#BPMCHANGE 148.72
|
|
200000200000100000200000200000100000200000100100,
|
|
#BPMCHANGE 150.41
|
|
#SCROLL 0.99
|
|
100000100000100000100000100200100000100000100100,
|
|
#BPMCHANGE 149.59
|
|
#SCROLL 1
|
|
200000100000100000200000100000200000200000000000,
|
|
#BPMCHANGE 150.48
|
|
#SCROLL 0.99
|
|
100000200000200000200000200000100000200000100200,
|
|
#BPMCHANGE 150
|
|
#SCROLL 1
|
|
100000200000200000200000200000100000200000100100,
|
|
#BPMCHANGE 149.53
|
|
100000100000200000100000200000200000100000200200,
|
|
#BPMCHANGE 150.89
|
|
#SCROLL 0.99
|
|
200100200100200100200100200100200100100000500000,
|
|
#BPMCHANGE 149.12
|
|
#SCROLL 1
|
|
000000000000000000000000000000000008000000100100,
|
|
#BPMCHANGE 150.41
|
|
#SCROLL 0.99
|
|
100100100200200200700000000000000000800000200000,
|
|
#BPMCHANGE 150
|
|
#SCROLL 1
|
|
200200200000000000000000100000000000000000202020,
|
|
#BPMCHANGE 150.41
|
|
#SCROLL 0.99
|
|
100200200200100200200100100100200200100200200200,
|
|
#BPMCHANGE 150.27
|
|
100000100000100000200000100000200000100000200000,
|
|
#BPMCHANGE 150.2
|
|
100000200000300000000000300000000000300000000000,
|
|
#BPMCHANGE 149.53
|
|
#SCROLL 1
|
|
600000000000000000000008000000300000300000600000,
|
|
#BPMCHANGE 149.59
|
|
000000000000000000000000000000000000000008000000,
|
|
#BPMCHANGE 148.32
|
|
#SCROLL 1.01
|
|
300000000000000000000000000000000000000000300000,
|
|
#BPMCHANGE 153.91
|
|
#SCROLL 0.97
|
|
300000000000000000000000000000000000000000000000,
|
|
|
|
#GOGOSTART
|
|
#BPMCHANGE 147.92
|
|
#SCROLL 1.01
|
|
100000100100200200100100000200100100200000100100,
|
|
#BPMCHANGE 149.59
|
|
#SCROLL 1
|
|
100000100100200200100100000200100200200000100100,
|
|
#BPMCHANGE 150
|
|
100000100100200200100100000200100100200000200200,
|
|
#BPMCHANGE 150.55
|
|
#SCROLL 0.99
|
|
100000100200200000200200100200200000200200200200,
|
|
#BPMCHANGE 150.07
|
|
100000200100200000100100000200200000200000200200,
|
|
#BPMCHANGE 150.2
|
|
100000200100200000100100000200200000200200100200,
|
|
#BPMCHANGE 149.53
|
|
#SCROLL 1
|
|
100000200100200000100100000200200000200200100000,
|
|
#BPMCHANGE 148.99
|
|
000000300000000000700000000000000000800000200200,
|
|
#BPMCHANGE 150.68
|
|
#SCROLL 0.99
|
|
100000200100200200100200000200100000200200100100,
|
|
#BPMCHANGE 150.34
|
|
100000200100200200100200000200100000200200100200,
|
|
#BPMCHANGE 149.66
|
|
#SCROLL 1
|
|
100000200100200200100200000200100000200100100200,
|
|
#BPMCHANGE 150.2
|
|
#SCROLL 0.99
|
|
100000100200200000200200100200200000200200200200,
|
|
#BPMCHANGE 150.96
|
|
100000200100200000100100000200100000200000200200,
|
|
#BPMCHANGE 148.85
|
|
#SCROLL 1
|
|
100000200100200000100100000200100000200000200200,
|
|
#BPMCHANGE 150
|
|
100000100100200000100100100000100200200000100100,
|
|
100000200200200000100100200100100100200100100100,
|
|
#BPMCHANGE 150.82
|
|
#SCROLL 0.99
|
|
700000000000000000000000000000800000000000700000,
|
|
#BPMCHANGE 150.96
|
|
000000000000000000000000800000000000200100200000,
|
|
|
|
#GOGOEND
|
|
#BPMCHANGE 148.25
|
|
#SCROLL 1.01
|
|
100000100000200200100200100100100000200000100200,
|
|
#BPMCHANGE 150.07
|
|
#SCROLL 0.99
|
|
100100100100200200100100200000100000200000200000,
|
|
#BPMCHANGE 150.62
|
|
100000200200200000100100000200100200200000200200,
|
|
#BPMCHANGE 150
|
|
#SCROLL 1
|
|
100100100000200200100100000100200200200000200000,
|
|
#BPMCHANGE 149.8
|
|
200200100100200200000100100200200100100000200200,
|
|
#BPMCHANGE 151.17
|
|
#SCROLL 0.99
|
|
100100200200100100100200200100100200200200100100,
|
|
#BPMCHANGE 148.79
|
|
#SCROLL 1
|
|
200200500000000000000008000000000000000000000000,
|
|
#BPMCHANGE 151.79
|
|
#SCROLL 0.98
|
|
700000000000000000000000000000000000000000000000,
|
|
000000000000000000000000000000000000000000000000,
|
|
000000000000000000000000000000000000000000000000,
|
|
000000000000000000008000000000000000000000000000,
|
|
|
|
|
|
#END
|
|
|
|
|
|
COURSE:Oni
|
|
LEVEL:7
|
|
BALLOON:24,24
|
|
SCOREINIT:470
|
|
SCOREDIFF:110
|
|
|
|
|
|
#START
|
|
|
|
|
|
#BARLINEOFF
|
|
#MEASURE 2/4
|
|
#SCROLL 0.95
|
|
100000200200
|
|
#BPMCHANGE 147.92
|
|
#SCROLL 1.01
|
|
200200100000,
|
|
#BARLINEON
|
|
#MEASURE 4/4
|
|
#BPMCHANGE 150.27
|
|
#SCROLL 0.99
|
|
100000000000200000100200100000100000200000000000,
|
|
#BPMCHANGE 150
|
|
100000100000200000100200100000100000200000000000,
|
|
#BPMCHANGE 151.1
|
|
#SCROLL 0.99
|
|
100000100000200000100200100000100000200000000000,
|
|
#BPMCHANGE 149.53
|
|
#SCROLL 1
|
|
100000100000200000000200100000100000200000000000,
|
|
#BPMCHANGE 149.39
|
|
100000100000200000100200100000100000200000000000,
|
|
#BPMCHANGE 150.41
|
|
#SCROLL 0.99
|
|
100000100000200000100200100000100000200000000000,
|
|
#BPMCHANGE 149.93
|
|
#SCROLL 1
|
|
500000000000000000000000000000000000000000000000,
|
|
#BPMCHANGE 150.27
|
|
#SCROLL 0.99
|
|
000000000000000000000008000000000000000000000000,
|
|
#BPMCHANGE 149.39
|
|
#SCROLL 1
|
|
100000000000100000000000100000000000100000000000,
|
|
#BPMCHANGE 150
|
|
100000000000100000000000100000000000100000200000,
|
|
100000200000100000200200100000200000100000000000,
|
|
100000200000100000200200100000200000200000000000,
|
|
100000000000100000000000100000000000100000200000,
|
|
100000200000100000000000100000000000100000200000,
|
|
100000200000100000000000100000200000100000200000,
|
|
#BPMCHANGE 149.46
|
|
200000000000100000200000000000100000200000000000,
|
|
#BPMCHANGE 150.55
|
|
#SCROLL 0.99
|
|
100000000000200000200000200000200000100000200000,
|
|
#BPMCHANGE 150
|
|
#SCROLL 1
|
|
100000100000200000200200100000200000100000200000,
|
|
#BPMCHANGE 150.96
|
|
#SCROLL 0.99
|
|
100000000000200000200000200000200000100000200000,
|
|
#BPMCHANGE 149.46
|
|
#SCROLL 1
|
|
100000100000200000200200100000200000100000200000,
|
|
#BPMCHANGE 150.41
|
|
#SCROLL 0.99
|
|
100000000000200000200000200000200000100000200000,
|
|
#BPMCHANGE 150.27
|
|
100000100000200000200200100000200000100000200000,
|
|
#BPMCHANGE 149.53
|
|
#SCROLL 1
|
|
500000000000000000000000000000000000000000000000,
|
|
#BPMCHANGE 150.2
|
|
#SCROLL 0.99
|
|
000000000000000000000000000000000008000000000000,
|
|
#BPMCHANGE 148.79
|
|
#SCROLL 1
|
|
100000000000200000000000100000100000200000000000,
|
|
#BPMCHANGE 150.41
|
|
#SCROLL 0.99
|
|
100000000000200000000000100000100000200000000000,
|
|
#BPMCHANGE 150.68
|
|
100000000000200000000000100000100000200000000000,
|
|
#BPMCHANGE 150
|
|
#SCROLL 1
|
|
100000000000200000000000100000100000200000000000,
|
|
#BPMCHANGE 149.46
|
|
200000000000200000000000200000100000200000000000,
|
|
#BPMCHANGE 151.03
|
|
#SCROLL 0.99
|
|
200000000000200000000000200000100000200000000000,
|
|
#BPMCHANGE 149.86
|
|
#SCROLL 1
|
|
600000000000000000000000000000000000000008000000,
|
|
#BPMCHANGE 150.82
|
|
#SCROLL 0.99
|
|
100000000200200000200200000200200000200200200200,
|
|
|
|
#GOGOSTART
|
|
#BPMCHANGE 147.46
|
|
#SCROLL 1.01
|
|
100000000000200000000200100000100000200000000000,
|
|
#BPMCHANGE 151.37
|
|
#SCROLL 0.99
|
|
100000100000200000000200100000100000200000000000,
|
|
#BPMCHANGE 150.14
|
|
100000100000200000000200100000100000200000000000,
|
|
#BPMCHANGE 149.05
|
|
#SCROLL 1
|
|
200000100000200000000200100000200000200000000000,
|
|
#BPMCHANGE 150.48
|
|
#SCROLL 0.99
|
|
100000100000200000000200100000200000200000000000,
|
|
#BPMCHANGE 149.53
|
|
#SCROLL 1
|
|
100000100000200000000200100000200000200000000000,
|
|
#BPMCHANGE 151.51
|
|
#SCROLL 0.99
|
|
100000100000200000000200100000200000200000300000,
|
|
#BPMCHANGE 148.72
|
|
#SCROLL 1
|
|
000200100000200000000200100000100000200000000000,
|
|
#BPMCHANGE 150
|
|
100000000000200000000200100000100000200000000000,
|
|
100000100000200000000200100000100000200000000000,
|
|
100000100000200000000200100000100000200000000000,
|
|
200000100000200000000200100000200000200000000000,
|
|
100000100000200000000200100000200000200000000000,
|
|
100000100000200000000200100000200000200000000000,
|
|
100100100000200000000200100000100000200000000000,
|
|
100100100000200000000200100000100000200000000000,
|
|
#BPMCHANGE 150.62
|
|
#SCROLL 0.99
|
|
700000000000000000000000000000000000000000000000,
|
|
#BPMCHANGE 150.68
|
|
000000000000000000000000800000000000000000000000,
|
|
|
|
#GOGOEND
|
|
#BPMCHANGE 150
|
|
#SCROLL 1
|
|
200000000000200000000000200000000000200000200200,
|
|
#BPMCHANGE 148.72
|
|
200000000000200000200000000000200000200000000000,
|
|
#BPMCHANGE 150.41
|
|
#SCROLL 0.99
|
|
200000000000200000200200200000000000200000000000,
|
|
#BPMCHANGE 149.59
|
|
#SCROLL 1
|
|
200000200000100000200000000000100000200000000000,
|
|
#BPMCHANGE 150.48
|
|
#SCROLL 0.99
|
|
200000000000100000000000200000000000200000200200,
|
|
#BPMCHANGE 150
|
|
#SCROLL 1
|
|
200000000000100000000000200000000000200000200200,
|
|
#BPMCHANGE 149.53
|
|
100000000000200000000000200000000000100000000000,
|
|
#BPMCHANGE 150.89
|
|
#SCROLL 0.99
|
|
200000000000100000200000000000100000200000000000,
|
|
#BPMCHANGE 149.12
|
|
#SCROLL 1
|
|
200000000000200000000000200000000000200000200200,
|
|
#BPMCHANGE 150.41
|
|
#SCROLL 0.99
|
|
100000000000200000200000200000200000200000000000,
|
|
#BPMCHANGE 150
|
|
#SCROLL 1
|
|
100000000000200000000000200000000000200000000000,
|
|
#BPMCHANGE 150.41
|
|
#SCROLL 0.99
|
|
100000000000200000200200100000200000200000000000,
|
|
#BPMCHANGE 150.27
|
|
100000000000100000200000100000200000100000200000,
|
|
#BPMCHANGE 150.2
|
|
100000000000100000200000100000000000100000000000,
|
|
#BPMCHANGE 149.53
|
|
#SCROLL 1
|
|
100000100000100000100000100000100000100000100000,
|
|
#BPMCHANGE 149.59
|
|
100000100000100000100000100000100000100000100000,
|
|
#BPMCHANGE 148.32
|
|
#SCROLL 1.01
|
|
300000000000000000000000000000000000000000300000,
|
|
#BPMCHANGE 153.91
|
|
#SCROLL 0.97
|
|
300000000000000000000000100000200200200000200200,
|
|
|
|
#GOGOSTART
|
|
#BPMCHANGE 147.92
|
|
#SCROLL 1.01
|
|
100000000000200000000200100000100000200000100000,
|
|
#BPMCHANGE 149.59
|
|
#SCROLL 1
|
|
100000100000200000000200100000100000200000100000,
|
|
#BPMCHANGE 150
|
|
100000100000200000000200100000200000200000000000,
|
|
#BPMCHANGE 150.55
|
|
#SCROLL 0.99
|
|
200000100000200000000200100200100000200000000000,
|
|
#BPMCHANGE 150.07
|
|
100000100000200000000200100000200000200000200200,
|
|
#BPMCHANGE 150.2
|
|
100000100000200000000200100000200000200000200200,
|
|
#BPMCHANGE 149.53
|
|
#SCROLL 1
|
|
100000100000200000000200100000100000200000100000,
|
|
#BPMCHANGE 148.99
|
|
000200100000200000000200100000200200200000200200,
|
|
#BPMCHANGE 150.68
|
|
#SCROLL 0.99
|
|
100000100000200000100200100000100000200000100000,
|
|
#BPMCHANGE 150.34
|
|
100000100000200000100200100000200000200000000000,
|
|
#BPMCHANGE 149.66
|
|
#SCROLL 1
|
|
100000100000200000100200100000200000200000100000,
|
|
#BPMCHANGE 150.2
|
|
#SCROLL 0.99
|
|
200000100000200000100200100000200000200000000000,
|
|
#BPMCHANGE 150.96
|
|
100000100000200000000200100000100000200000100000,
|
|
#BPMCHANGE 148.85
|
|
#SCROLL 1
|
|
100000100000200000000200100000100000200000100000,
|
|
#BPMCHANGE 150
|
|
100000100000200000000200100000100000200000200200,
|
|
100000100000200000000200100000100000200000200200,
|
|
#BPMCHANGE 150.82
|
|
#SCROLL 0.99
|
|
700000000000000000000000000000000000000000000000,
|
|
#BPMCHANGE 150.96
|
|
000000000000000000000000800000000000000000000000,
|
|
|
|
#GOGOEND
|
|
#BPMCHANGE 148.25
|
|
#SCROLL 1.01
|
|
100000100000200000200000100200100000200000100000,
|
|
#BPMCHANGE 150.07
|
|
#SCROLL 0.99
|
|
100000100000200000100200100000100000200000000000,
|
|
#BPMCHANGE 150.62
|
|
100000100000200000000200100000100000200000100000,
|
|
#BPMCHANGE 150
|
|
#SCROLL 1
|
|
100100100000200000000000100200100000200000000000,
|
|
#BPMCHANGE 149.8
|
|
500000000000000000000000000000000000000000000000,
|
|
#BPMCHANGE 151.17
|
|
#SCROLL 0.99
|
|
000000000000000000000000000000000000000000000000,
|
|
#BPMCHANGE 148.79
|
|
#SCROLL 1
|
|
000000000000000008000000200000200200200000200200,
|
|
#BPMCHANGE 151.79
|
|
#SCROLL 0.98
|
|
100000000000000000000000000000000000000000000000,
|
|
|
|
|
|
#END
|
|
|
|
|
|
COURSE:Hard
|
|
LEVEL:4
|
|
BALLOON:19,19
|
|
SCOREINIT:2970
|
|
SCOREDIFF:0
|
|
|
|
|
|
#START
|
|
|
|
|
|
#BARLINEOFF
|
|
#MEASURE 2/4
|
|
#BPMCHANGE 150
|
|
,
|
|
#BARLINEON
|
|
#MEASURE 4/4
|
|
10201110,
|
|
10201110,
|
|
10201110,
|
|
1202,
|
|
10201110,
|
|
10201110,
|
|
5,
|
|
000000000000000000000008000000000000000000000000,
|
|
|
|
1111,
|
|
10101012,
|
|
10101012,
|
|
12101012,
|
|
1111,
|
|
10101012,
|
|
1111,
|
|
3,
|
|
|
|
10201022,
|
|
10201110,
|
|
10201022,
|
|
10201110,
|
|
10201022,
|
|
1212,
|
|
5,
|
|
000000000000000000000000000008000000000000000000,
|
|
|
|
10201120,
|
|
10202220,
|
|
10201120,
|
|
1210,
|
|
10201120,
|
|
10201120,
|
|
60000008,
|
|
,
|
|
|
|
#GOGOSTART
|
|
10201120,
|
|
10201120,
|
|
10201120,
|
|
1110,
|
|
11201120,
|
|
11201120,
|
|
500000000000000000000000000000000000000000000008,
|
|
,
|
|
|
|
10201120,
|
|
10201120,
|
|
10201120,
|
|
1110,
|
|
11201120,
|
|
11201120,
|
|
3212,
|
|
3212,
|
|
|
|
7,
|
|
08,
|
|
#GOGOEND
|
|
|
|
22,
|
|
2,
|
|
22,
|
|
20020020,
|
|
12,
|
|
12,
|
|
1,
|
|
20020020,
|
|
|
|
22,
|
|
2,
|
|
22,
|
|
22,
|
|
2111,
|
|
2111,
|
|
11111111,
|
|
11111111,
|
|
|
|
30000003,
|
|
3,
|
|
|
|
#GOGOSTART
|
|
10201120,
|
|
10201120,
|
|
10201120,
|
|
1212,
|
|
11201120,
|
|
11201122,
|
|
500000000000000000000000000000000000000000000008,
|
|
,
|
|
|
|
10201120,
|
|
10201120,
|
|
10201120,
|
|
1212,
|
|
11201120,
|
|
11201120,
|
|
30201120,
|
|
30201120,
|
|
|
|
7,
|
|
08,
|
|
#GOGOEND
|
|
|
|
10221122,
|
|
1212,
|
|
11201120,
|
|
1210,
|
|
5,
|
|
,
|
|
000000000000000000000008000000000000000000000000,
|
|
|
|
3,
|
|
|
|
|
|
#END
|
|
|
|
|
|
COURSE:Normal
|
|
LEVEL:4
|
|
BALLOON:14,14,22
|
|
SCOREINIT:5090
|
|
SCOREDIFF:0
|
|
|
|
|
|
#START
|
|
|
|
|
|
#BARLINEOFF
|
|
#MEASURE 2/4
|
|
#BPMCHANGE 150
|
|
,
|
|
#BARLINEON
|
|
#MEASURE 4/4
|
|
1011,
|
|
1011,
|
|
1011,
|
|
2,
|
|
1011,
|
|
1011,
|
|
5,
|
|
000000000000000000000008000000000000000000000000,
|
|
|
|
1,
|
|
,
|
|
1,
|
|
,
|
|
1,
|
|
1,
|
|
1,
|
|
3,
|
|
|
|
1,
|
|
11,
|
|
1,
|
|
1,
|
|
1,
|
|
11,
|
|
5,
|
|
000000000000000000000000000008000000000000000000,
|
|
|
|
1212,
|
|
1,
|
|
1212,
|
|
11,
|
|
1210,
|
|
1210,
|
|
60000008,
|
|
,
|
|
|
|
#GOGOSTART
|
|
10101110,
|
|
11,
|
|
10101110,
|
|
11,
|
|
1222,
|
|
1222,
|
|
500000000000000000000000000000000000000000000008,
|
|
,
|
|
|
|
10101110,
|
|
11,
|
|
10101110,
|
|
11,
|
|
1222,
|
|
1222,
|
|
31,
|
|
31,
|
|
|
|
7,
|
|
08,
|
|
#GOGOEND
|
|
|
|
2,
|
|
,
|
|
2,
|
|
22,
|
|
1,
|
|
11,
|
|
1,
|
|
,
|
|
|
|
2,
|
|
2,
|
|
2,
|
|
22,
|
|
11,
|
|
1111,
|
|
1111,
|
|
11101110,
|
|
|
|
30000003,
|
|
3,
|
|
|
|
#GOGOSTART
|
|
10201110,
|
|
1210,
|
|
10201110,
|
|
1210,
|
|
1222,
|
|
1222,
|
|
500000000000000000000000000000000000000000000008,
|
|
,
|
|
|
|
10201110,
|
|
1210,
|
|
10201110,
|
|
1210,
|
|
1222,
|
|
1222,
|
|
33,
|
|
33,
|
|
|
|
7,
|
|
08,
|
|
#GOGOEND
|
|
|
|
10101110,
|
|
1120,
|
|
10101110,
|
|
22,
|
|
9,
|
|
,
|
|
900000000000000000000008000000000000000000000000,
|
|
|
|
|
|
#END
|
|
|
|
|
|
COURSE:Easy
|
|
LEVEL:3
|
|
BALLOON:12,12,14
|
|
SCOREINIT:9520
|
|
SCOREDIFF:0
|
|
|
|
|
|
#START
|
|
|
|
|
|
#BARLINEOFF
|
|
#MEASURE 2/4
|
|
#BPMCHANGE 150
|
|
,
|
|
#BARLINEON
|
|
#MEASURE 4/4
|
|
11,
|
|
1,
|
|
11,
|
|
2,
|
|
11,
|
|
1,
|
|
5,
|
|
000000000000000000000008000000000000000000000000,
|
|
|
|
1,
|
|
,
|
|
1,
|
|
,
|
|
1,
|
|
1,
|
|
1,
|
|
3,
|
|
|
|
1,
|
|
,
|
|
1,
|
|
,
|
|
1,
|
|
11,
|
|
5,
|
|
000000000000000000000000000008000000000000000000,
|
|
|
|
1,
|
|
2,
|
|
1,
|
|
2,
|
|
1,
|
|
1,
|
|
60000008,
|
|
,
|
|
|
|
#GOGOSTART
|
|
1011,
|
|
1,
|
|
1011,
|
|
1,
|
|
1,
|
|
11,
|
|
500000000000000000000000000000000000000000000008,
|
|
,
|
|
|
|
1011,
|
|
1,
|
|
1011,
|
|
1,
|
|
11,
|
|
11,
|
|
3,
|
|
3,
|
|
|
|
7,
|
|
08,
|
|
#GOGOEND
|
|
|
|
2,
|
|
,
|
|
2,
|
|
,
|
|
1,
|
|
1,
|
|
1,
|
|
,
|
|
|
|
2,
|
|
,
|
|
2,
|
|
,
|
|
1,
|
|
11,
|
|
11,
|
|
11,
|
|
|
|
3,
|
|
3,
|
|
|
|
#GOGOSTART
|
|
1011,
|
|
11,
|
|
1011,
|
|
11,
|
|
1,
|
|
12,
|
|
500000000000000000000000000000000000000000000008,
|
|
,
|
|
|
|
1011,
|
|
11,
|
|
1011,
|
|
11,
|
|
12,
|
|
12,
|
|
3,
|
|
3,
|
|
|
|
7,
|
|
08,
|
|
#GOGOEND
|
|
|
|
1110,
|
|
1,
|
|
1110,
|
|
2,
|
|
9,
|
|
,
|
|
900000000000000000000008000000000000000000000000,
|
|
|
|
|
|
#END
|
|
|