Files
TJA-by-song-no/tja/931.tja
2026-03-04 23:59:27 +09:00

440 lines
5.7 KiB
Plaintext

//TJADB Project
TITLE:JOIN THE PAC -Tatsujin Version-
TITLEJA:JOIN THE PAC -太鼓の達人 Ver.-
SUBTITLE:--Ken Ishii/PAC-MAN 40th Anniversary
SUBTITLEJA:パックマン40周年公式テーマ楽曲
BPM:127
WAVE:JOIN THE PAC -Tatsujin Version-.ogg
OFFSET:-8.337
DEMOSTART:70.551
COURSE:Oni
LEVEL:9
BALLOON:3,3,3,3,3,3,3,3,3,5
SCOREINIT:550
SCOREDIFF:110
#START
11,
11,
#BPMCHANGE 134
1111,
1101101101107080,
#BPMCHANGE 140
1002102210021022,
1002102210101020,
1002102210021022,
1002102210101020,
100200100100202000100000100200200100202000100000,
100200100100202000100000100000100000100000200000,
100200100100202000100000100200200100202000100000,
100200100100202000100000100000100000100000200000,
1021101010112022,
1021101010112010,
1021101010112022,
1021101010112010,
100000200200100000200000100000100100202000200200,
100000200200100000200000100000100100202000100000,
100000200200100000200000100000100100202000200200,
500000000000000000000000000000000008000000000000,
#GOGOSTART
1021221021117080,
1021221021112110,
1021221012117080,
1021221012111210,
1221221011217080,
1221221011211120,
1221221011127080,
#GOGOEND
1221221020202020,
1020120210120020,
1202112012020020,
1020120021220111,
1202012012120020,
1221121010120020,
1202112012020020,
1221121021220111,
1202012012103000,
#GOGOSTART
1221121022117080,
1202012022112210,
1221121012217080,
1202012012211220,
1221121011227080,
1202012011221120,
1221121021127080,
12020120
#GOGOEND
#BPMCHANGE 138
#SCROLL 1.01449275362
0000
#BPMCHANGE 142
#SCROLL 0.98591549295
4000,
#BPMCHANGE 140
#SCROLL 1
1120120010020020,
1102201020020020,
1020120010020020,
1102201020020020,
1120120010020020,
1102201020020020,
1020120010020020,
1202002040040040,
#GOGOSTART
1120120122122012,
1102201210122110,
1120120122122012,
1102201210122102,
1220120122122112,
1122121122122102,
111121211222
#BPMCHANGE 135.5
#SCROLL 1.0332103321
1210,
#GOGOEND
#BPMCHANGE 143
#SCROLL 0.97902097902
22222220
#BPMCHANGE 128
#SCROLL 1.09375
0000
#BPMCHANGE 138
#SCROLL 1.01449275362
7008,
#END
COURSE:Hard
LEVEL:6
BALLOON:3
SCOREINIT:680
SCOREDIFF:195
#START
11,
11,
#BPMCHANGE 134
1111,
500000000000000000000000000008000000000000000000,
#BPMCHANGE 140
1000100110001000,
1001100030000000,
1000100110001000,
1001100030000000,
1000100110001000,
1001100030000000,
1000100110001000,
500000000000000000000000000008000000000000000000,
1011100010102000,
1011100010102000,
1011100010102000,
1011100010102000,
1011100020201000,
1011100020201000,
1011100020201000,
500000000000000000000000000000000008000000000000,
#GOGOSTART
1011101010102000,
1011101010102000,
1011101010102000,
1011101010102000,
1011101020201000,
1011101020201000,
1011101020201000,
#GOGOEND
1,
1000100010110010,
1000100011020000,
1000100010110010,
1000100011020000,
1020100010110010,
1101011011020000,
1020100010110010,
1101011010003000,
#GOGOSTART
1020100010110000,
1101011011020020,
1020100010110000,
1101011011020020,
1020100010110000,
1101011011020020,
1020100010110000,
11010110
#GOGOEND
#BPMCHANGE 138
#SCROLL 1.01449275362
0000
#BPMCHANGE 142
#SCROLL 0.98591549295
4000,
#BPMCHANGE 140
#SCROLL 1
1020020010020000,
1101101020020000,
1020020010020000,
1101101020020000,
1020020010020000,
1101101020020000,
1020020010020000,
3000000040040040,
#GOGOSTART
1010010010020020,
1101101020020000,
1010010010020020,
1101101020020000,
1010010010020020,
1101101020020000,
111011011002
#BPMCHANGE 135.5
#SCROLL 1.0332103321
0020,
#GOGOEND
#BPMCHANGE 143
#SCROLL 0.97902097902
500000000000000008000000
#BPMCHANGE 128
#SCROLL 1.09375
000000000000
#BPMCHANGE 138
#SCROLL 1.01449275362
700000000800,
#END
COURSE:Normal
LEVEL:3
SCOREINIT:770
SCOREDIFF:280
#START
11,
11,
#BPMCHANGE 134
1111,
500000000000000000000000000008000000000000000000,
#BPMCHANGE 140
1110,
1130,
1110,
1130,
1210,
1230,
1210,
500000000000000000000000000008000000000000000000,
1112,
1110,
1112,
1110,
2221,
2220,
2221,
500000000000000000000000000000000008000000000000,
#GOGOSTART
1122,
1110,
1122,
1110,
1122,
1210,
1122,
#GOGOEND
1,
11,
1110,
11,
1110,
11,
1110,
11,
2223,
#GOGOSTART
1112,
10201110,
1112,
10201110,
1121,
20201110,
1121,
22
#GOGOEND
#BPMCHANGE 138
#SCROLL 1.01449275362
0
#BPMCHANGE 142
#SCROLL 0.98591549295
4,
#BPMCHANGE 140
#SCROLL 1
1202,
1202,
1202,
1202,
1212,
1202,
1212,
34,
#GOGOSTART
11101000,
11102000,
11101000,
11102000,
11101000,
11102000,
212021
#BPMCHANGE 135.5
#SCROLL 1.0332103321
20,
#GOGOEND
#BPMCHANGE 143
#SCROLL 0.97902097902
500000000000000008000000
#BPMCHANGE 128
#SCROLL 1.09375
000000000000
#BPMCHANGE 138
#SCROLL 1.01449275362
000000000000,
#END
COURSE:Easy
LEVEL:3
SCOREINIT:780
SCOREDIFF:368
#START
1,
1,
#BPMCHANGE 134
11,
500000000000000000000000000008000000000000000000,
#BPMCHANGE 140
11,
13,
11,
13,
11,
13,
11,
500000000000000000000000000008000000000000000000,
1110,
1110,
1110,
1110,
2220,
2220,
2220,
500000000000000000000000000008000000000000000000,
#GOGOSTART
1210,
1210,
1210,
1210,
1120,
1120,
1120,
#GOGOEND
1,
1,
11,
1,
11,
1,
11,
1,
22,
#GOGOSTART
1110,
1210,
1110,
1210,
1110,
1210,
1110,
11
#GOGOEND
#BPMCHANGE 138
#SCROLL 1.01449275362
0
#BPMCHANGE 142
#SCROLL 0.98591549295
4,
#BPMCHANGE 140
#SCROLL 1
1,
12,
1,
12,
1,
12,
1,
34,
#GOGOSTART
1110,
12,
1110,
12,
1110,
12,
222
#BPMCHANGE 135.5
#SCROLL 1.0332103321
2,
#GOGOEND
#BPMCHANGE 143
#SCROLL 0.97902097902
500000000000000008000000
#BPMCHANGE 128
#SCROLL 1.09375
000000000000
#BPMCHANGE 138
#SCROLL 1.01449275362
000000000000,
#END