620 lines
6.3 KiB
Plaintext
620 lines
6.3 KiB
Plaintext
//TJADB Project
|
|
TITLE:MagiCatz
|
|
TITLEJA:MagiCatz
|
|
SUBTITLE:--Sakuzyo/DEEMO
|
|
SUBTITLEJA:Sakuzyo 「DEEMO」より
|
|
BPM:145
|
|
WAVE:MagiCatz.ogg
|
|
OFFSET:-1.784
|
|
DEMOSTART:92.774
|
|
|
|
COURSE:Oni
|
|
LEVEL:10
|
|
BALLOON:55,7,25,56
|
|
SCOREINIT:490
|
|
SCOREDIFF:100
|
|
|
|
|
|
#START
|
|
|
|
|
|
20202222,
|
|
21210222,
|
|
2010200020102022,
|
|
200101101101102100200200,
|
|
20202120,
|
|
#BPMCHANGE 145.37
|
|
21210111,
|
|
#BPMCHANGE 145
|
|
30203022,
|
|
7,
|
|
,
|
|
,
|
|
8,
|
|
100101102100100101102102,
|
|
100101102100100101102102,
|
|
100201102100102101102102,
|
|
100201102100102101102102,
|
|
100001002002100200102201,
|
|
101001200202102002101103,
|
|
000020200000200100000010000101000100200100200100,
|
|
100100202004001101102102,
|
|
100001002002100200102101,
|
|
101001200202102002101103,
|
|
001102101102002202202003,
|
|
002001102001202102102100,
|
|
|
|
#GOGOSTART
|
|
100100202001002200202202,
|
|
100100202001001001002200,
|
|
100100202001001002002102,
|
|
78,
|
|
100100202001002200202202,
|
|
100100202001001002002200,
|
|
100100202001001001002002,
|
|
#GOGOEND
|
|
#MEASURE 5/4
|
|
10
|
|
#BPMCHANGE 232.65
|
|
000,
|
|
#MEASURE 3/4
|
|
#BPMCHANGE 217
|
|
112,
|
|
112,
|
|
101120,
|
|
222022201010,
|
|
122,
|
|
122,
|
|
112121,
|
|
221022102020,
|
|
112,
|
|
112,
|
|
101120,
|
|
222020102000,
|
|
102220,
|
|
102220,
|
|
#MEASURE 5/4
|
|
311
|
|
#BPMCHANGE 147.5
|
|
#SCROLL 1.55
|
|
10,
|
|
#MEASURE 4/4
|
|
#BPMCHANGE 145
|
|
#SCROLL 1
|
|
2011201120111222,
|
|
1022102210222111,
|
|
2011201120111222,
|
|
1022111212222211,
|
|
1011102220112120,
|
|
2011201120112211,
|
|
7,
|
|
08,
|
|
1020121020121020,
|
|
1010121012121020,
|
|
1020121020121020,
|
|
1021021040002022,
|
|
112121122121,
|
|
112121122122,
|
|
3,
|
|
200200200200202202201201,
|
|
|
|
#GOGOSTART
|
|
100200101200101201101202,
|
|
100202100200100202101202,
|
|
100202100200100202100202,
|
|
100202202202101100102102,
|
|
100200101200101201101202,
|
|
100202100200100201201202,
|
|
100101200202100201101200,
|
|
600000000000000000000000000008000000000000000000,
|
|
100200101200101201101202,
|
|
100202222202100202222202,
|
|
100202102202100202102202,
|
|
101111102201102222201102,
|
|
100201111201100201111202,
|
|
100101200202101201101200,
|
|
30203022,
|
|
7,
|
|
,
|
|
,
|
|
#BPMCHANGE 144.4
|
|
8,
|
|
|
|
#GOGOEND
|
|
#BPMCHANGE 145
|
|
20102121,
|
|
12120212,
|
|
1000200010002012,
|
|
#BPMCHANGE 144.78
|
|
1000
|
|
#BPMCHANGE 135
|
|
0222,
|
|
20202222,
|
|
22220222,
|
|
2000200020002022,
|
|
2
|
|
#BPMCHANGE 145.75
|
|
0,
|
|
#MEASURE 3/4
|
|
#BPMCHANGE 217
|
|
100022202000,
|
|
100022202000,
|
|
100011102000,
|
|
#MEASURE 2/4
|
|
#BPMCHANGE 145
|
|
#SCROLL 1.49
|
|
500000000000000008000000000000000000,
|
|
|
|
#GOGOSTART
|
|
#MEASURE 4/4
|
|
#SCROLL 1
|
|
100100202002001001002200,
|
|
600000000000000000000008000000400000400000000000,
|
|
|
|
#GOGOEND
|
|
|
|
|
|
#END
|
|
|
|
|
|
COURSE:Hard
|
|
LEVEL:6
|
|
BALLOON:45,6,21,45
|
|
SCOREINIT:660
|
|
SCOREDIFF:165
|
|
|
|
|
|
#START
|
|
|
|
|
|
20202222,
|
|
21210222,
|
|
2000200020002022,
|
|
20000222,
|
|
2222,
|
|
#BPMCHANGE 145.37
|
|
21210111,
|
|
#BPMCHANGE 145
|
|
30203022,
|
|
9,
|
|
,
|
|
,
|
|
8,
|
|
1111,
|
|
11101110,
|
|
12101210,
|
|
12121210,
|
|
|
|
11001110,
|
|
11002210,
|
|
11001120,
|
|
100100000004000200200000,
|
|
11001110,
|
|
11002210,
|
|
100100200000000100200005,
|
|
000000000000000000008000,
|
|
|
|
#GOGOSTART
|
|
100100202001000000200000,
|
|
100100202001000000100000,
|
|
100100202001000000200000,
|
|
78,
|
|
100100202001000000200000,
|
|
100100202001000000100000,
|
|
100100202001000000200000,
|
|
#GOGOEND
|
|
#MEASURE 5/4
|
|
30
|
|
#BPMCHANGE 232.65
|
|
000,
|
|
|
|
#MEASURE 3/4
|
|
#BPMCHANGE 217
|
|
#SCROLL 0.668
|
|
102,
|
|
102,
|
|
112,
|
|
2,
|
|
102,
|
|
102,
|
|
122,
|
|
2,
|
|
|
|
102,
|
|
102,
|
|
112,
|
|
2,
|
|
102,
|
|
102,
|
|
#MEASURE 5/4
|
|
300
|
|
#BPMCHANGE 147.5
|
|
#SCROLL 0.983
|
|
10,
|
|
|
|
#MEASURE 4/4
|
|
#BPMCHANGE 145
|
|
#SCROLL 1
|
|
1000100010111000,
|
|
1000100010222000,
|
|
1000100010111000,
|
|
1000101010222000,
|
|
10112122,
|
|
20202022,
|
|
7,
|
|
08,
|
|
|
|
1000100020020020,
|
|
1000101010020000,
|
|
1000100020020020,
|
|
1001001040000000,
|
|
122122,
|
|
122122,
|
|
3,
|
|
,
|
|
|
|
#GOGOSTART
|
|
10101111,
|
|
12120111,
|
|
1000100010001011,
|
|
500000000000000000000008000000200000200000200000,
|
|
10101022,
|
|
12120222,
|
|
10201011,
|
|
600000000000000000000000000008000000000000000000,
|
|
|
|
10101111,
|
|
12120111,
|
|
1000100010001011,
|
|
500000000000000000000008000000200000200000200000,
|
|
1111,
|
|
12120222,
|
|
30203022,
|
|
|
|
9,
|
|
,
|
|
0009,
|
|
#BPMCHANGE 144.4
|
|
8,
|
|
#GOGOEND
|
|
|
|
#BPMCHANGE 145
|
|
20102121,
|
|
12120212,
|
|
1000200010002011,
|
|
#BPMCHANGE 144.78
|
|
1
|
|
#BPMCHANGE 135
|
|
0,
|
|
20202222,
|
|
22220222,
|
|
2000200020002022,
|
|
2
|
|
#BPMCHANGE 145.75
|
|
0,
|
|
|
|
#MEASURE 3/4
|
|
#BPMCHANGE 217
|
|
#SCROLL 0.668
|
|
102,
|
|
122,
|
|
102,
|
|
#MEASURE 3/4
|
|
500000000000000008000000000000000000,
|
|
#BPMCHANGE 145
|
|
#SCROLL 1
|
|
#MEASURE 4/4
|
|
#GOGOSTART
|
|
100100202001000000200000,
|
|
600000000000000000000008000000400000400000000000,
|
|
#GOGOEND
|
|
,
|
|
,
|
|
#END
|
|
|
|
COURSE:Normal
|
|
LEVEL:3
|
|
BALLOON:32,4,16,32
|
|
SCOREINIT:680
|
|
SCOREDIFF:183
|
|
|
|
#START
|
|
2222,
|
|
20220000,
|
|
2222,
|
|
2,
|
|
2222,
|
|
#BPMCHANGE 145.37
|
|
20220000,
|
|
#BPMCHANGE 145
|
|
3232,
|
|
|
|
9,
|
|
,
|
|
0009,
|
|
8,
|
|
1,
|
|
1,
|
|
11,
|
|
1111,
|
|
|
|
11,
|
|
1011,
|
|
12,
|
|
1022,
|
|
11,
|
|
1011,
|
|
100000000000200000000005,
|
|
000000000000000000008000,
|
|
|
|
#GOGOSTART
|
|
1210,
|
|
1110,
|
|
1212,
|
|
78,
|
|
1210,
|
|
1110,
|
|
1212,
|
|
#GOGOEND
|
|
#MEASURE 5/4
|
|
30
|
|
#BPMCHANGE 232.65
|
|
000,
|
|
|
|
#MEASURE 3/4
|
|
#BPMCHANGE 217
|
|
#SCROLL 0.668
|
|
102,
|
|
102,
|
|
112,
|
|
2,
|
|
102,
|
|
102,
|
|
122,
|
|
2,
|
|
|
|
102,
|
|
102,
|
|
112,
|
|
2,
|
|
102,
|
|
102,
|
|
#MEASURE 5/4
|
|
300
|
|
#BPMCHANGE 147.5
|
|
#SCROLL 0.983
|
|
00,
|
|
|
|
#MEASURE 4/4
|
|
#SCROLL 1
|
|
#BPMCHANGE 145
|
|
10101110,
|
|
10102220,
|
|
10101110,
|
|
10102220,
|
|
20222000,
|
|
2222,
|
|
7,
|
|
08,
|
|
|
|
1120,
|
|
1122,
|
|
1120,
|
|
1140,
|
|
12,
|
|
12,
|
|
3,
|
|
,
|
|
|
|
#GOGOSTART
|
|
1112,
|
|
10110000,
|
|
1111,
|
|
500000000000000000000000000008000000000000000000,
|
|
1122,
|
|
10110000,
|
|
1212,
|
|
600000000000000000000000000008000000000000000000,
|
|
|
|
1112,
|
|
10110000,
|
|
1111,
|
|
500000000000000000000000000008000000000000000000,
|
|
1122,
|
|
10110000,
|
|
3232,
|
|
|
|
9,
|
|
,
|
|
0009,
|
|
#BPMCHANGE 144.4
|
|
8,
|
|
#GOGOEND
|
|
|
|
#BPMCHANGE 145
|
|
2121,
|
|
20120000,
|
|
1212,
|
|
#BPMCHANGE 144.78
|
|
1
|
|
#BPMCHANGE 135
|
|
0,
|
|
2222,
|
|
20220000,
|
|
2222,
|
|
2
|
|
#BPMCHANGE 145.75
|
|
0,
|
|
|
|
#MEASURE 3/4
|
|
#BPMCHANGE 217
|
|
#SCROLL 0.668
|
|
102,
|
|
102,
|
|
102,
|
|
#MEASURE 3/4
|
|
1,
|
|
#BPMCHANGE 145
|
|
#SCROLL 1
|
|
#MEASURE 4/4
|
|
#GOGOSTART
|
|
1112,
|
|
600000000000000000000000000000000008000000000000,
|
|
#GOGOEND
|
|
,
|
|
,
|
|
#END
|
|
|
|
COURSE:Easy
|
|
LEVEL:2
|
|
BALLOON:25,3,12,25
|
|
SCOREINIT:810
|
|
SCOREDIFF:333
|
|
|
|
#START
|
|
22,
|
|
2200,
|
|
22,
|
|
2,
|
|
22,
|
|
#BPMCHANGE 145.37
|
|
2200,
|
|
#BPMCHANGE 145
|
|
33,
|
|
|
|
9,
|
|
,
|
|
0009,
|
|
8,
|
|
1,
|
|
1,
|
|
11,
|
|
11,
|
|
|
|
1,
|
|
1,
|
|
12,
|
|
12,
|
|
1,
|
|
1,
|
|
100000000000200000000005,
|
|
000000000008000000000000,
|
|
|
|
#GOGOSTART
|
|
11,
|
|
11,
|
|
11,
|
|
78,
|
|
11,
|
|
11,
|
|
11,
|
|
#GOGOEND
|
|
#MEASURE 5/4
|
|
30
|
|
#BPMCHANGE 232.65
|
|
000,
|
|
|
|
#MEASURE 3/4
|
|
#SCROLL 0.668
|
|
#BPMCHANGE 217
|
|
1,
|
|
1,
|
|
1,
|
|
,
|
|
1,
|
|
1,
|
|
1,
|
|
,
|
|
|
|
1,
|
|
1,
|
|
1,
|
|
,
|
|
1,
|
|
1,
|
|
#MEASURE 5/4
|
|
300
|
|
#BPMCHANGE 147.5
|
|
#SCROLL 0.983
|
|
00,
|
|
|
|
#MEASURE 4/4
|
|
#SCROLL 1
|
|
#BPMCHANGE 145
|
|
1,
|
|
1,
|
|
1,
|
|
1,
|
|
2,
|
|
2,
|
|
7,
|
|
08,
|
|
|
|
2,
|
|
1,
|
|
2,
|
|
1,
|
|
22,
|
|
22,
|
|
3,
|
|
,
|
|
|
|
#GOGOSTART
|
|
11,
|
|
1100,
|
|
1011,
|
|
500000000000000000000000000008000000000000000000,
|
|
11,
|
|
1100,
|
|
11,
|
|
600000000000000000000000000008000000000000000000,
|
|
|
|
11,
|
|
1100,
|
|
1011,
|
|
500000000000000000000000000008000000000000000000,
|
|
11,
|
|
1100,
|
|
33,
|
|
|
|
9,
|
|
,
|
|
0009,
|
|
#BPMCHANGE 144.4
|
|
8,
|
|
#GOGOEND
|
|
|
|
#BPMCHANGE 145
|
|
12,
|
|
1200,
|
|
12,
|
|
#BPMCHANGE 144.78
|
|
1
|
|
#BPMCHANGE 135
|
|
0,
|
|
22,
|
|
2200,
|
|
22,
|
|
2
|
|
#BPMCHANGE 145.75
|
|
0,
|
|
|
|
#MEASURE 3/4
|
|
#BPMCHANGE 217
|
|
#SCROLL 0.668
|
|
1,
|
|
1,
|
|
1,
|
|
#MEASURE 3/4
|
|
1,
|
|
#BPMCHANGE 145
|
|
#SCROLL 1
|
|
#MEASURE 4/4
|
|
#GOGOSTART
|
|
1011,
|
|
600000000000000000000000000000000008000000000000,
|
|
#GOGOEND
|
|
,
|
|
,
|
|
#END
|