Files
TJA-by-song-no/tja/95.tja
2026-03-07 15:37:31 +09:00

714 lines
7.0 KiB
Plaintext
Raw Permalink Blame History

This file contains ambiguous Unicode characters
This file contains Unicode characters that might be confused with other characters. If you think that this is intentional, you can safely ignore this warning. Use the Escape button to reveal them.
//TJADB Project
TITLE:Swan Lake still a duckling
TITLEJA:白鳥の湖 still a duckling
SUBTITLE:--Akira Kamimae -Swan Lake Rendition-
BPM:240
WAVE:Swan Lake still a duckling.ogg
OFFSET:-1.221
DEMOSTART:32.221
COURSE:Edit
LEVEL:10
SCOREINIT:380
SCOREDIFF:90
#START
34,
4334,
44,
2000200011112020,
0022102000221020,
0022102000221020,
0022102000221020,
0022102000221010,
1011201010111010,
1011201010111010,
11221122,
12121212,
1011201010111010,
1011201010111010,
11221122,
1340,
1120202011202020,
1110111010202020,
1120102011201020,
1020202011101000,
1120202011202020,
1110111010202020,
1120102011201020,
301110401110,
302220302220,
301110401110,
302220302220,
1110111011101111,
2220222022202222,
1110111011112000,
1111111110003040,
#GOGOSTART
12121122,
12121122,
11212121,
11121112,
11211121,
11211121,
11221122,
11212122,
12121122,
12121122,
11212121,
11121112,
11211121,
11211121,
11221120,
3333,
#GOGOEND
30002002,
02022010,
10002002,
02022010,
10020202,
02021020,
10020202,
02021000,
#SCROLL 0.75
1000111020002000,
1000222010001110,
1000111020002000,
1000222010001110,
1000111020002000,
1000111010001000,
1000111020002000,
1000222020002000,
1000111010101110,
1010111040003000,
0000111010101110,
1010111040003000,
1110202011102020,
1110101011101010,
1110202011102020,
1111111111112000,
#GOGOSTART
#SCROLL 1
1020102010221020,
1010201010112010,
1020102010221020,
1010201010112010,
1010222010102220,
1010111010101110,
1010222010102220,
1010111010101110,
1020102010221020,
1010201010112010,
1020102010221020,
1010201010112010,
1010222010102220,
1010111010101110,
1010222010102220,
1010111010101110,
1010202011102020,
1110202011101010,
2220101022201010,
2220101022201010,
1110101022202020,
1110101011101010,
1110101022202020,
1444,
1120112011201120,
1122112211101000,
2210221022102210,
#BPMCHANGE 242.14
2211221122202000,
#BPMCHANGE 238.94
1110101022202020,
1110111010003000,
#BPMCHANGE 240
34,
43,
#GOGOEND
#BPMCHANGE 240.84
40001122,
20012001,
#BPMCHANGE 238.34
4000200011101010,
#BPMCHANGE 240
4000100011101010,
#BPMCHANGE 235.77
4,
#BPMCHANGE 240
,
#SCROLL 8
0300,
#END
COURSE:Oni
LEVEL:9
SCOREINIT:470
SCOREDIFF:120
#START
34,
2112,
24,
2000200011102020,
02120212,
02122212,
02122212,
02122210,
10112210,
11212020,
11203033,
30000011,
20112210,
11212020,
11203033,
3,
12101210,
12021011,
20021011,
20221211,
20221011,
20021011,
20221022,
111100,
222200,
101110100000,
202220200000,
10222222,
1010101011101010,
00222222,
500000000000000000000000000008000000100000200000,
#GOGOSTART
10112112,
1022202030000000,
12101212,
1022202000100010,
10112121,
20222011,
20101212,
1022202000100010,
10112121,
1022202030000000,
12101212,
1022202000100010,
10112011,
21212022,
10221020,
3333,
#GOGOEND
30002002,
02022000,
10002002,
02022020,
10010101,
01021000,
10010101,
01021000,
#SCROLL 0.75
0000111010001000,
1000111020002000,
0000111010001000,
1000111020002000,
1000222020002000,
1000111010000000,
1000222020002000,
1000222020000000,
0000111010001000,
1000111040003000,
0000111010001000,
1000111040003000,
1000222020002000,
1,
1000222020002000,
500000000000000000000000000008000000200000000000,
#GOGOSTART
#SCROLL 1
00121020,
12101212,
10212020,
11201210,
11221121,
2220100022201000,
22112211,
2220100022201020,
00121020,
12101212,
10212020,
11201210,
11221121,
2220100022201000,
22112211,
2220201000201000,
11221122,
1010202011101000,
22112211,
2020101022201000,
11201121,
20102210,
11201121,
1222,
1010202011102020,
1110202011101000,
2020101022201010,
#BPMCHANGE 242.14
2220101022201000,
#BPMCHANGE 238.94
11201120,
1000111010000000,
#BPMCHANGE 240
34,
44,
#GOGOEND
#BPMCHANGE 240.84
30001122,
20012001,
#BPMCHANGE 238.34
2000200011101000,
#BPMCHANGE 240
2000100011101000,
#BPMCHANGE 235.77
2,
#BPMCHANGE 240
,
#SCROLL 3
0400,
#END
COURSE:Hard
LEVEL:7
SCOREINIT:570
SCOREDIFF:150
#START
,
,
,
2222,
10201120,
10210120,
10201120,
10210120,
10011020,
1212,
10201110,
10000011,
20011020,
1212,
10201110,
1220,
10101022,
20011011,
20011011,
20011011,
1222,
10011011,
20011011,
34,
111100,
34,
111100,
0222,
20111011,
1222,
11111012,//31
#GOGOSTART
10001111,
1230,
10101111,
10000101,
20111010,
20012001,
20101022,
20000101,
20001111,
1230,
10101111,
10000101,
20001110,
20012001,
21,
1111,//47
#GOGOEND
1,
20202200,
1,
20202200,
10010101,
01011000,
20020202,
02022000,
0111,
10112010,
0111,
10222010,
1122,
1,
1122,
1022,
0111,
10112010,
0111,
10222010,
1122,
1001,
1122,
1022,//71
#GOGOSTART
0111,
11201010,
0111,
22201010,
1121,
2,
1121,
1022,
0111,
11201010,
0111,
22201010,
1121,
2,
1122,
20010000,
0111,
20221010,
0111,
20221010,
1122,
1,
1122,
1022,
0111,
11221010,
0111,
#BPMCHANGE 242.14
11221010,
#BPMCHANGE 238.94
1121,
1001,
#BPMCHANGE 240
12,
44,//103
#BPMCHANGE 240.84
#GOGOEND
30001111,
10011001,
#BPMCHANGE 238.34
1211,
#BPMCHANGE 240
2111,
#BPMCHANGE 235.77
20001110,
#BPMCHANGE 240
20011001,
2400,
,
,
,
,
#END
COURSE:Normal
LEVEL:6
BALLOON:4,4,4
SCOREINIT:750
SCOREDIFF:180
#START
#SCROLL 0.9
,
,
,
22,
1110,
7008,
1110,
7008,
1012,
1210,
1150,
000000000008000000000000000000000000000000000000,
1012,
1210,
1150,
000000000008000000000000000000000000000000000000,
1110,
20011000,
20011000,
20011000,
1110,
20011000,
20011000,
11,
22,
11,
22,
0222,
0111,
0222,
500000000000000000000000000000000008000000000000,//31
#GOGOSTART
1011,
13,
1111,
1,
2022,
22,
2222,
2,
1011,
13,
1111,
1,
2022,
22,
11,
1111,//47
#GOGOEND
1,
22,
1,
22,
11,
00011000,
11,
00011000,
0101,
12,
0101,
12,
12,
500000000000000000000000000000000008000000000000,
12,
500000000000000000000000000000000008000000000000,
0111,
1044,
0111,
1044,
11,
500000000000000000000000000000000008000000000000,
1011,
7008,//71
#GOGOSTART
0111,
21,
0111,
21,
2222,
500000000000000000000000000000000008000000000000,
1111,
500000000000000000000000000000000008000000000000,
0111,
21,
0111,
21,
1122,
1,
1122,
20010000,
0111,
2011,
0111,
2011,
12,
500000000000000000000000000000000008000000000000,
12,
500000000000000000000000000000000008000000000000,
0111,
21,
0111,
#BPMCHANGE 242.14
21,
#BPMCHANGE 238.94
1122,
1001,
#BPMCHANGE 240
12,
44,//103
#BPMCHANGE 240.84
#GOGOEND
3011,
10011001,
#BPMCHANGE 238.34
1111,
#BPMCHANGE 240
2111,
#BPMCHANGE 235.77
2,
#BPMCHANGE 240
20011001,
1400,
,
,
,
,
#END
COURSE:Easy
LEVEL:4
SCOREINIT:710
SCOREDIFF:200
#START
#SCROLL 0.75
,
,
,
,
1,
11,
1,
11,
1,
1,
11,
1,
2,
2,
22,
2,
1,
2,
1,
2,
11,
2,
1,
11,
2,
11,
2,
0202,
0100,
0202,
500000000000000000000000000008000000000000000000,//31
#GOGOSTART
11,
500000000000000000000000000008000000000000000000,
1011,
1,
11,
500000000000000000000000000008000000000000000000,
22,
2,
1,
13,
11,
1,
1,
12,
11,
1011,//47
#GOGOEND
1,
2,
1,
2,
11,
1,
11,
1,
11,
2,
22,
1,
11,
1,
22,
2,
1,
13,
2,
24,
1,
1,
1,
500000000000000000000000000000000008000000000000,//71
#GOGOSTART
0101,
0110,
0202,
0220,
1,
1,
2,
2,
0101,
0110,
0202,
0220,
12,
500000000000000000000008000000000000000000000000,
12,
500000000000000000000008000000000000000000000000,
0101,
03,
0202,
04,
12,
1,
12,
1,
0101,
03,
0202,
#BPMCHANGE 242.14
04,
#BPMCHANGE 238.94
12,
1,
#BPMCHANGE 240
1,
4,//103
#BPMCHANGE 240.84
#GOGOEND
3,
1,
#BPMCHANGE 238.34
2,
#BPMCHANGE 240
1,
#BPMCHANGE 235.77
3,
#BPMCHANGE 240
,
0400,
,
,
,
,
#END