Files
TJA-by-song-no/tja/99.tja
2026-03-07 15:37:31 +09:00

935 lines
13 KiB
Plaintext

//TJADB Project
TITLE:William Tell Overture
TITLEJA:ウィリアム・テル序曲
SUBTITLE:--Gioachino Antonio Rossini
BPM:152.46
WAVE:William Tell Overture.ogg
OFFSET:-1.598
DEMOSTART:14.063
COURSE:Oni
LEVEL:7
STYLE:Double
BALLOON:17
#START P1
1010100010101000,
0000002000000020,
#BPMCHANGE 152.37
1010102010101020,
#BPMCHANGE 152.36
0000001110000000,
1011102000000000,
1011102000000000,
7,
0000008000000011,
#BPMCHANGE 152
1011101110101000,
3000000010101011,
1011101110101011,
1000000010000000,
3000000010101011,
1011101110101000,
3000000010101011,
1000000010000011,//16
#GOGOSTART
1011100010201020,
1020102010000000,
0000001110111011,
1000000000000000,//20
#GOGOEND
,
2000002000000022,
2000000010201022,
2000000010201011,
1011101110101000,
1000200010101011,
1011101110101011,
1000000010102000,
1011101010000000,
1000000020002020,
2000100010002020,
2000100010000000,//32
#GOGOSTART
,
1000100020002020,
2000100010002020,
#BPMCHANGE 150.85
2000100010000000,//36
#BPMCHANGE 150.15
#GOGOEND
2000200020200010,
#BPMCHANGE 151.43
1000002020200000,
2000002020000020,
#BPMCHANGE 153.5
2000200020000000,
#BPMCHANGE 151.43
2000000020101010,
#BPMCHANGE 153.5
2000200020002000,
#BPMCHANGE 150.67
2020200020001000,
#BPMCHANGE 155.18
2010000010000000,
#BPMCHANGE 152
2000200010101011,
1011101110101000,
2000200010101011,
#MEASURE 2/4
1,
#MEASURE 4/4
3000000010001000,
1010100020202020,
1000100010001000,
1010100020202020,
0000200000002000,
0000200000002000,
5000008010101010,
0000000030000000,
5000008010101010,
0000000030000000,
#BPMCHANGE 152.93
5000000000000000000000080000000010000000100000001000000010000000,
#BPMCHANGE 151.54
3000300010100000,
3000002220222022,
#BPMCHANGE 152
2020200000000000,
0000000101010000,
,//64
#GOGOSTART
5000000000000000000000000000000000000000000000080000000000000000,
1020102000000000,
#BPMCHANGE 151.68
1020102000000000,
#BPMCHANGE 150.67
1000000010102020,
#BPMCHANGE 154.55
1000000010102020,
#BPMCHANGE 150.56
1000001110111011,
#BPMCHANGE 148.79
1000001110000000,
#BPMCHANGE 152
5000000000000000000000000000000800000000000000000000000000000000,//72
#GOGOEND
#END
#START P2
0000002000000020,
1010100010101011,
#BPMCHANGE 152.37
1000001110000000,
#BPMCHANGE 152.36
1010102010101020,
0000000010111020,
0000000010111020,
7,
0000008000000000,
#BPMCHANGE 152
3000000010101011,
1011101110101000,
3000000010101011,
1000000010000011,
1011101110101000,
3000000010101011,
1011101110101011,
1000000010000000,//16
#GOGOSTART
0000001110111011,
1000000000000011,
1011100010201020,
1020102010000000,//20
#GOGOEND
,
2000002000000000,
1020102220000000,
1020102220000000,
1000200010101011,
1011101110101000,
1000200010101011,
1000000010102000,
,
1000101010001000,
1000202020001000,
1000100010000000,//32
#GOGOSTART
1011101110000010,
1000101010001000,
1000202020001000,
#BPMCHANGE 150.85
1000100010000000,//36
#BPMCHANGE 150.15
#GOGOEND
1000100010000020,
#BPMCHANGE 151.43
2020001010000000,
1000002020000020,
#BPMCHANGE 153.5
2000200020000000,
#BPMCHANGE 151.43
2010101020000000,
#BPMCHANGE 153.5
2000200020002000,
#BPMCHANGE 150.67
2000100020202000,
#BPMCHANGE 155.18
0000201010000011,
#BPMCHANGE 152
1011101110101000,
2000200010101011,
1011101110101011,
#MEASURE 2/4
1,
#MEASURE 4/4
3000000010001000,
2020202010101000,
1000100010001000,
2020202010101000,
2000000020000000,
2000000020000000,
0000000030000000,
5000008010101010,
0000000030000000,
5000008010101010,
#BPMCHANGE 152.93
0000000030003000,
2020202000002020,
#BPMCHANGE 151.54
3,
0000001110111011,
#BPMCHANGE 152
1010100000000000,
1010100000000000,//64
#GOGOSTART
5000000000000000000000000000000000000000000000080000000000000000,
0000000010201020,
#BPMCHANGE 151.68
0000000010201020,
#BPMCHANGE 150.67
1,
#BPMCHANGE 154.55
1010202010000000,
#BPMCHANGE 150.56
1000001110111011,
#BPMCHANGE 148.79
1000001110000000,
#BPMCHANGE 152
5000000000000000000000000000000800000000000000000000000000000000,//72
#GOGOEND
#END
STYLE:Single
BALLOON:17
SCOREINIT:680
SCOREDIFF:185
#START
11121112,
11121112,
#BPMCHANGE 152.37
11121112,
#BPMCHANGE 152.36
11121112,
1011102010111020,
1011102010111020,
7,
0000008000000011,
#BPMCHANGE 152
1011101110202011,
1011101110202011,
1011101110202011,
1000001110202011,
1011101110202011,
1011101110202011,
1011101110202011,
1000001110202011,//16
#GOGOSTART
1011101110201020,
1020102010201011,
1011101110201020,
12121000,//20
#GOGOEND
,
2000002000000022,
2000002220000022,
2000002220000011,
2011201120102011,
2011201120102011,
2011201120102011,
20001120,
1012101010000000,
12121010,
1111,
1110,//32
#GOGOSTART
1012101210000000,
12121010,
3333,
#BPMCHANGE 150.85
1110,//36
#BPMCHANGE 150.15
#GOGOEND
20202002,
#BPMCHANGE 151.43
20022002,
20022002,
#BPMCHANGE 153.5
2220,
#BPMCHANGE 151.43
22,
#BPMCHANGE 153.5
2222,
#BPMCHANGE 150.67
2222,
#BPMCHANGE 155.18
2000200020000011,
#BPMCHANGE 152
1022102210201011,
1022102210201011,
1022102210201011,
#MEASURE 2/4
1,
#MEASURE 4/4
3011,
11101110,
11101010,
1110,
1111,
1111,
5000000000000000000000080000000010000000100000001000000010000000,
5000000000000000000000080000000010000000100000001000000010000000,
5000000000000000000000080000000010000000100000001000000010000000,
5000000000000000000000080000000010000000100000001000000010000000,
#BPMCHANGE 152.93
5000000000000000000000080000000010000000000000001000000000000000,
#BPMCHANGE 151.54
1111,
1000002220222022,
#BPMCHANGE 152
2020201110111011,
11101110,
11100000,//64
#GOGOSTART
5000000000000000000000000000000000000000000000080000000000000000,
12121212,
#BPMCHANGE 151.68
12121212,
#BPMCHANGE 150.67
1011,
#BPMCHANGE 154.55
1111,
#BPMCHANGE 150.56
1000001110111011,
#BPMCHANGE 148.79
1000000110000000,
#BPMCHANGE 152
5000000000000000000000000000000800000000000000000000000000000000,//72
#GOGOEND
#END
COURSE:Hard
LEVEL:7
BALLOON:17
#START
11101110,
11101110,
#BPMCHANGE 152.37
11121112,
#BPMCHANGE 152.36
11121112,
1011102010111020,
1011102010111020,
7,
0000008000000011,
#SECTION
#BRANCHSTART p,70,85
#N
#BPMCHANGE 152
1011101110000011,
1011101110000011,
1011101110000011,
1000000010000011,
1011101110000011,
1011101110000011,
1011101110000011,
1000000010000011,//16
#GOGOSTART
1011100010201020,
1020102010000011,
1011100010201020,
12121000,//20
#GOGOEND
,
#E
#BPMCHANGE 152
1011101110202011,
1011101110202011,
1011101110202011,
1000001110202011,
1011101110202011,
1011101110202011,
1011101110202011,
1000001110202011,//16
#GOGOSTART
1011101110201020,
1020102010201011,
1011101110201020,
12121000,//20
#GOGOEND
,
#M
#BPMCHANGE 152
1011101110202011,
1011101110202011,
1011101110202011,
1000001110202011,
1011101110202011,
1011101110202011,
1011101110202011,
1000001110202011,//16
#GOGOSTART
1011101110201020,
1020102010201011,
1011101110201020,
12121000,//20
#GOGOEND
,
#SECTION
#BRANCHSTART p,70,85
#N
2000002000000022,
2000002220000022,
2000002220000011,
1011101110000011,
1011101110000011,
1011101110000011,
10001120,
1011101010000000,
1111,
1111,
1110,//32
#GOGOSTART
1011101110000000,
1111,
3333,
#BPMCHANGE 150.85
1110,//36
#E
2000002000000022,
2000002220000022,
2000002220000011,
1011101110202011,
1011101110202011,
1011101110202011,
10001120,
1011101010000000,
1111,
1111,
1110,//32
#GOGOSTART
1011101110000000,
1111,
3333,
#BPMCHANGE 150.85
1110,//36
#M
2000002000000022,
2000002220000022,
2000002220000011,
2011201120102011,
2011201120102011,
2011201120102011,
20001120,
1012101010000000,
12121010,
1111,
1110,//32
#GOGOSTART
1012101210000000,
12121010,
3333,
#BPMCHANGE 150.85
1110,//36
#SECTION
#BRANCHSTART p,70,85
#N
#BPMCHANGE 150.15
#GOGOEND
20202002,
#BPMCHANGE 151.43
20022002,
20022002,
#BPMCHANGE 153.5
2220,
#BPMCHANGE 151.43
22,
#BPMCHANGE 153.5
2222,
#BPMCHANGE 150.67
2222,
#BPMCHANGE 155.18
2000200020000011,
#BPMCHANGE 152
1011101110000011,
#E
#BPMCHANGE 150.15
#GOGOEND
20202002,
#BPMCHANGE 151.43
20022002,
20022002,
#BPMCHANGE 153.5
2220,
#BPMCHANGE 151.43
22,
#BPMCHANGE 153.5
2222,
#BPMCHANGE 150.67
2222,
#BPMCHANGE 155.18
2000200020000011,
#BPMCHANGE 152
1011101110202011,
#M
#BPMCHANGE 150.15
#GOGOEND
20202002,
#BPMCHANGE 151.43
20022002,
20022002,
#BPMCHANGE 153.5
2220,
#BPMCHANGE 151.43
22,
#BPMCHANGE 153.5
2222,
#BPMCHANGE 150.67
2222,
#BPMCHANGE 155.18
2000200020000011,
#BPMCHANGE 152
2011201120102011,
#SECTION
#BRANCHSTART p,70,85
#N
1011101110000011,
1011101110000011,
#MEASURE 2/4
1,
#MEASURE 4/4
3011,
11101110,
11101010,
1110,
1111,
1111,
5000000000000000000000080000000010000000100000001000000010000000,
5000000000000000000000080000000010000000100000001000000010000000,
5000000000000000000000080000000010000000100000001000000010000000,
5000000000000000000000080000000010000000100000001000000010000000,
#BPMCHANGE 152.93
5000000000000000000000080000000010000000000000001000000000000000,
#BPMCHANGE 151.54
1111,
1000002220222022,
#BPMCHANGE 152
2000001110111011,
10001110,
#E
1011101110202011,
1011101110202011,
#MEASURE 2/4
1,
#MEASURE 4/4
3011,
11101110,
11101010,
1110,
1111,
1111,
5000000000000000000000080000000010000000100000001000000010000000,
5000000000000000000000080000000010000000100000001000000010000000,
5000000000000000000000080000000010000000100000001000000010000000,
5000000000000000000000080000000010000000100000001000000010000000,
#BPMCHANGE 152.93
5000000000000000000000080000000010000000000000001000000000000000,
#BPMCHANGE 151.54
1111,
1000002220222022,
#BPMCHANGE 152
2020201110111011,
11101110,
#M
2011201120102011,
2011201120102011,
#MEASURE 2/4
2,
#MEASURE 4/4
3011,
11101110,
11101010,
1110,
1111,
1111,
5000000000000000000000080000000010000000100000001000000010000000,
5000000000000000000000080000000010000000100000001000000010000000,
5000000000000000000000080000000010000000100000001000000010000000,
5000000000000000000000080000000010000000100000001000000010000000,
#BPMCHANGE 152.93
5000000000000000000000080000000010000000000000001000000000000000,
#BPMCHANGE 151.54
1111,
1000002220222022,
#BPMCHANGE 152
2020201110111011,
11101110,
#SECTION
#BRANCHSTART p,70,85
#N
11100000,//N64
#GOGOSTART
5000000000000000000000000000000000000000000000080000000000000000,
11111111,
#BPMCHANGE 151.68
11111111,
#BPMCHANGE 150.67
1011,
#BPMCHANGE 154.55
1111,
#BPMCHANGE 150.56
1000001110111011,
#BPMCHANGE 148.79
1000000110000000,
#BPMCHANGE 152
5000000000000000000000000000000800000000000000000000000000000000,//72
#GOGOEND
,
,
#E
11100000,//E64
#GOGOSTART
5000000000000000000000000000000000000000000000080000000000000000,
12121212,
#BPMCHANGE 151.68
12121212,
#BPMCHANGE 150.67
1011,
#BPMCHANGE 154.55
1111,
#BPMCHANGE 150.56
1000001110111011,
#BPMCHANGE 148.79
1000000110000000,
#BPMCHANGE 152
5000000000000000000000000000000800000000000000000000000000000000,//72
#GOGOEND
,
,
#M
11100000,//E64
#GOGOSTART
5000000000000000000000000000000000000000000000080000000000000000,
12121212,
#BPMCHANGE 151.68
12121212,
#BPMCHANGE 150.67
1011,
#BPMCHANGE 154.55
1111,
#BPMCHANGE 150.56
1000001110111011,
#BPMCHANGE 148.79
1000000110000000,
#BPMCHANGE 152
5000000000000000000000000000000800000000000000000000000000000000,//72
#GOGOEND
#END
COURSE:Normal
LEVEL:5
BALLOON:10
#START
11,
11,
#BPMCHANGE 152.37
1111,
#BPMCHANGE 152.36
1111,
11101110,
11101110,
7,
0800,
#BPMCHANGE 152
10101110,
10101110,
10101110,
10001110,
10101110,
10101110,
10101110,
10001110,//16
#GOGOSTART
1110,
10111000,
1110,
10111000,//20
#GOGOEND
,
20002002,
20022002,
20022000,
10101110,
10101110,
10101110,
11,
10111000,
1111,
1111,
1110,//32
#GOGOSTART
10111000,
1111,
1212,
#BPMCHANGE 150.85
3330,//36
#BPMCHANGE 150.15
#GOGOEND
20202002,
#BPMCHANGE 151.43
20022002,
20022002,
#BPMCHANGE 153.5
2220,
#BPMCHANGE 151.43
22,
#BPMCHANGE 153.5
2222,
#BPMCHANGE 150.67
2222,
#BPMCHANGE 155.18
2220,
#BPMCHANGE 152
10101110,
10101110,
10101110,
#MEASURE 2/4
1,
#MEASURE 4/4
3011,
5000000000000000000000000000000000000000000000080000000000000000,
1111,
5000000000000000000000000000000000000000000000080000000000000000,
2022,
2022,
5000000000000000000000080000000000000000100000001000000010000000,
5000000000000000000000080000000000000000100000001000000010000000,
5000000000000000000000080000000000000000100000001000000010000000,
5000000000000000000000080000000000000000100000001000000010000000,
#BPMCHANGE 152.93
1111,
#BPMCHANGE 151.54
1111,
1022,
#BPMCHANGE 152
22201010,
11101110,
11100000,//64
#GOGOSTART
5000000000000000000000000000000000000000000000080000000000000000,
1212,
#BPMCHANGE 151.68
1212,
#BPMCHANGE 150.67
1011,
#BPMCHANGE 154.55
1111,
#BPMCHANGE 150.56
1033,
#BPMCHANGE 148.79
33,
#BPMCHANGE 152
5000000000000000000000000000000800000000000000000000000000000000,//72
#GOGOEND
,
,
#END
COURSE:Easy
LEVEL:3
BALLOON:10
#START
11,
1110,
#BPMCHANGE 152.37
1110,
#BPMCHANGE 152.36
1110,
33,
33,
7,
0008,
#BPMCHANGE 152
1011,
1011,
1011,
13,
1011,
1011,
1011,
13,//16
#GOGOSTART
1110,
11,
1110,
12,//20
#GOGOEND
,
,
22,
22,
1011,
1011,
1011,
13,
02,
2220,
22,
2220,//32
#GOGOSTART
33,
1110,
33,
#BPMCHANGE 150.85
3330,//36
#BPMCHANGE 150.15
#GOGOEND
02,
#BPMCHANGE 151.43
02,
02,
#BPMCHANGE 153.5
2220,
#BPMCHANGE 151.43
02,
#BPMCHANGE 153.5
02,
#BPMCHANGE 150.67
22,
#BPMCHANGE 155.18
2220,
#BPMCHANGE 152
1011,
1011,
1011,
#MEASURE 2/4
1,
#MEASURE 4/4
3,
5000000000000000000000000000000000000000000000000000000000000008,
0011,
3,
22,
22,
5000000000000000000000000000000800000000000000000000000000000000,
3,
5000000000000000000000000000000800000000000000000000000000000000,
3,
#BPMCHANGE 152.93
5000000000000000000000000000000800000000000000000000000000000000,
#BPMCHANGE 151.54
11,
11,
#BPMCHANGE 152
1110,
1110,
1,//64
#GOGOSTART
5000000000000000000000000000000000000008000000000000000000000000,
11,
#BPMCHANGE 151.68
11,
#BPMCHANGE 150.67
11,
#BPMCHANGE 154.55
1111,
#BPMCHANGE 150.56
1033,
#BPMCHANGE 148.79
33,
#BPMCHANGE 152
5000000000000000000000000000000800000000000000000000000000000000,//72
#GOGOEND
,
,
#END