489 lines
9.0 KiB
Plaintext
489 lines
9.0 KiB
Plaintext
//TJADB Project
|
|
TITLE:Tell-me Beat
|
|
TITLEJA:テルミービート
|
|
SUBTITLE:--kinoshita feat. Kagamine Rin
|
|
SUBTITLEJA:キノシタ feat. 鏡音リン
|
|
BPM:197
|
|
WAVE:Tell-me Beat.ogg
|
|
OFFSET:-0.668
|
|
DEMOSTART:46.623
|
|
|
|
COURSE:Oni
|
|
LEVEL:8
|
|
SCOREINIT:350
|
|
SCOREDIFF:90
|
|
|
|
|
|
#START
|
|
|
|
|
|
100000000000100000000000100000100000200000100000,
|
|
000000200000100000200000100000000000200000000000,
|
|
100000000000100000000000100000100000200000100000,
|
|
000000200000100000200000100000100100200000100100,
|
|
100000000000100000000000100000100000200000100000,
|
|
000000200000100000200000100000000000200000000000,
|
|
100000200000100000200000000000100000200000300000,
|
|
000000300000000000300000300000000000200000200200,
|
|
100000200000200000200000100000200000200000200200,
|
|
100000000000200000100000000000100000200000200200,
|
|
100000200000200000200000100000200000200000200200,
|
|
100000000000200000100000100000100100200000200200,
|
|
100000000000200000100100100000000000200000100100,
|
|
100000000000200000100100100000100000200000100000,
|
|
100000000000100000200000000000200000200000300000,
|
|
000000200000200000200000200000202020200000200000,
|
|
100000200000200000200000100000200000200000100000,
|
|
100000000000200000100100100000100000200000100000,
|
|
100000200000200000200000100000100000200000100000,
|
|
100000000000200000100100100000200000200000100000,
|
|
100000000000200000100100100000100000200000200000,
|
|
100000100000200000100000200000200200100000200000,
|
|
100100100000200000100100100000100000200000100000,
|
|
000000200200200000200000100000100100200000200000,
|
|
100000000000202020100000000000202020100000000000,
|
|
202020100000000000100100100000100100100000300000,
|
|
300000000000300000300000000000300000000000600000,
|
|
000000000000000008000000000000200200100000000000,
|
|
300000000000300000000000300000000000200000200000,
|
|
100000200000200000200000100000200200200200200200,
|
|
100000100100200000100000200000200200100000200000,
|
|
000000100000200000100000100100100000200020002000,
|
|
400000000000400000000000400000100000100100200000,
|
|
000000100000200000200000100020002000100020002000,
|
|
100000200000200000100000200000200000100000200000,
|
|
200000100000200000200000100000200200200000500000,
|
|
000000000000000000000008000000000000000000300000,
|
|
000000300000300000300000300000000000200000200000,
|
|
|
|
#GOGOSTART
|
|
100000100000200000100000100000000000200000100100,
|
|
100000100100200000200000100000100000200000100000,
|
|
100000200200200000100100100000100000200000200200,
|
|
200000200000100000200000100100100000200000100000,
|
|
000000200200100000100000000000200200100000100000,
|
|
000200200000100000100000000000100100100000100000,
|
|
000000100100100000100000000000100100100000500000,
|
|
000000000008000000000000100000200000200000100000,
|
|
000000100100200000100000100000000000200000100100,
|
|
100000100100200000200000100000100000200000100000,
|
|
100000200200200000100100100000100000200000200200,
|
|
200000200000100000200000100100100000200000100000,
|
|
000000200200100000100000000000200200100000100000,
|
|
000000200200100000100000000000200200200000300000,
|
|
000000200200200000300000000000200200200000300000,
|
|
000000100100200000200000100000200200200000300000,
|
|
000000200200200000300000000000200200200000300000,
|
|
000000100100200000100000100000200200100000100100,
|
|
|
|
#GOGOEND
|
|
100000200000100000200000100000200000200000200000,
|
|
100000200000200000200000100000200000200000100100,
|
|
100000100000200000200000100000200000200200200000,
|
|
100000200000200200200000200200100000000000100100,
|
|
100000200000100000200000100000200000200000200000,
|
|
100000200000200000200000100000200200200000100000,
|
|
100100100000200000100100100000200000100100100000,
|
|
100100200200100100200200100010002000100010002000,
|
|
100000000000202020100000000000202020100000000000,
|
|
202020100000000000100100100000100100100000300000,
|
|
300000000000300000300000000000300000000000600000,
|
|
000000000000000008000000000000200200200000200000,
|
|
300000000000300000000000300000000000200000200000,
|
|
100000200000200000200000100000200200200200200200,
|
|
100000100100200000100000200000200200100000200000,
|
|
000000100000200000100000100100100000200020002000,
|
|
400000000000400000000000400000100000100100100000,
|
|
000000200000100000100000100020002000100020002000,
|
|
100000200000200000100000200000200000100000200000,
|
|
200000100000200000200000100000200200200000500000,
|
|
000000000000000000000008000000000000000000300000,
|
|
000000300000300000300000300000000000000000400000,
|
|
000000400000400000400000400000000000200000200000,
|
|
300000300000200000200000200000000000200000200000,
|
|
300000300000200000200000200000100000200000200000,
|
|
300000000000200200200000300000200000200200200000,
|
|
300000000000000000000000200000200200200000100000,
|
|
000000200000200000200000100000200000200000200000,
|
|
100000200000200000100000000000100000100000100000,
|
|
000000100100100000100000000000100100100000500000,
|
|
000000000008000000000000100000200000200000
|
|
|
|
#GOGOSTART
|
|
100000,
|
|
000000100100200000100000100000000000200000100100,
|
|
100000100100200000200000100000100000200000100000,
|
|
100000200200200000100100100000100000200000200200,
|
|
200000200000100000200000100000100100200200100000,
|
|
000000200200100000100000000000200200100000100000,
|
|
100000200200100000100000000000200200200000300000,
|
|
000000200200200000300000000000200200200000300000,
|
|
000000100100200000200000100000100100200000300000,
|
|
000000100100200000300000000000100100200000300000,
|
|
000000200200200000200000300000000000000000000000,
|
|
|
|
#GOGOEND
|
|
|
|
|
|
#END
|
|
|
|
|
|
COURSE:Hard
|
|
LEVEL:6
|
|
BALLOON:25,15,25,15
|
|
SCOREINIT:400
|
|
SCOREDIFF:100
|
|
|
|
|
|
#START
|
|
|
|
|
|
10101111,
|
|
02222020,
|
|
10101111,
|
|
02224040,
|
|
10101111,
|
|
02222020,
|
|
11110113,
|
|
03033000,
|
|
12201120,
|
|
10210120,
|
|
12201120,
|
|
10211121,
|
|
10211021,
|
|
10211121,
|
|
10210123,
|
|
0020202010222020,
|
|
12201221,
|
|
10211021,
|
|
12211021,
|
|
12211221,
|
|
10011021,
|
|
10211221,
|
|
10210121,
|
|
0011101010102020,
|
|
9,
|
|
,
|
|
00000008,
|
|
,
|
|
30303012,
|
|
02122101,
|
|
10220112,
|
|
0010102011100000,
|
|
40404012,
|
|
01221010,
|
|
21121121,
|
|
12112125,
|
|
000000000000000000000008000000000000000000300000,
|
|
03333022,
|
|
|
|
#GOGOSTART
|
|
1010201010002011,
|
|
11221122,
|
|
10210121,
|
|
01211121,
|
|
02110211,
|
|
02110700,
|
|
,
|
|
00801221,
|
|
0010201010002011,
|
|
11221122,
|
|
10210121,
|
|
01211121,
|
|
02110211,
|
|
01210223,
|
|
02230226,
|
|
000000000008000000000000000000200000200000300000,
|
|
02230226,
|
|
000000000000000008000000000000000000000000000000,
|
|
|
|
#GOGOEND
|
|
11201121,
|
|
11211021,
|
|
01211121,
|
|
1010200011100010,
|
|
01201121,
|
|
11211120,
|
|
11221122,
|
|
100000200000100000200000500000000000000008000000,
|
|
9,
|
|
,
|
|
00000008,
|
|
,
|
|
30303012,
|
|
02122101,
|
|
10220112,
|
|
0010102011100000,
|
|
40404012,
|
|
01221010,
|
|
21121121,
|
|
12112125,
|
|
000000000000000000000008000000000000000000300000,
|
|
03333004,
|
|
04444000,
|
|
33000000,
|
|
33000222,
|
|
30003000,
|
|
300000002022202,
|
|
02220222,
|
|
02220700,
|
|
,
|
|
0080122
|
|
|
|
#GOGOSTART
|
|
1,
|
|
0010201010002011,
|
|
11221122,
|
|
10210121,
|
|
01211121,
|
|
02110211,
|
|
01210223,
|
|
02230226,
|
|
000000000008000000000000000000200000200000300000,
|
|
02230226,
|
|
000000000000000000000008000000000000000000000000,
|
|
#GOGOEND
|
|
|
|
#END
|
|
|
|
|
|
COURSE:Normal
|
|
LEVEL:5
|
|
BALLOON:18,12,18,12
|
|
SCOREINIT:3920
|
|
SCOREDIFF:0
|
|
|
|
|
|
#START
|
|
|
|
|
|
10101001,
|
|
0012,
|
|
10101001,
|
|
0044,
|
|
10101001,
|
|
0012,
|
|
10100103,
|
|
03003000,
|
|
2022,
|
|
2200,
|
|
2022,
|
|
22,
|
|
12,
|
|
1022,
|
|
10020004,
|
|
,
|
|
1022,
|
|
10110020,
|
|
1022,
|
|
1122,
|
|
10011020,
|
|
1001102,
|
|
10110101,
|
|
02022022,
|
|
9,
|
|
,
|
|
00000008,
|
|
,
|
|
30303001,
|
|
00102200,
|
|
101101010,
|
|
00102200,
|
|
40404001,
|
|
0122,
|
|
5,
|
|
,
|
|
000000000000000000000008000000000000000000300000,
|
|
0330,
|
|
#GOGOSTART
|
|
10102001,
|
|
0121,
|
|
10110101,
|
|
00001011,
|
|
02010201,
|
|
02010700,
|
|
,
|
|
00801001,
|
|
00102001,
|
|
0121,
|
|
10110101,
|
|
00011011,
|
|
020102010,
|
|
020104030,
|
|
04030406,
|
|
000000000008000000000000000000400000000000300000,
|
|
04030406,
|
|
000000000000000008000000000000000000000000000000,
|
|
|
|
#GOGOEND
|
|
1121,
|
|
10102001,
|
|
0121,
|
|
10102201,
|
|
0121,
|
|
1121,
|
|
30330330,
|
|
500000000000000000000000000000000000000008000000,
|
|
9,
|
|
,
|
|
00000008,
|
|
,
|
|
30303001,
|
|
00102001,
|
|
10102011,
|
|
0120,
|
|
40404001,
|
|
0122,
|
|
5,
|
|
,
|
|
000000000000000000000008000000000000000000300000,
|
|
00303004,
|
|
044,
|
|
33000000,
|
|
33000000,
|
|
33,
|
|
30003002,
|
|
00020002,
|
|
00020700,
|
|
,
|
|
0080100
|
|
|
|
#GOGOSTART
|
|
1,
|
|
00102001,
|
|
0122,
|
|
10110202,
|
|
00010011,
|
|
02010201,
|
|
02010403,
|
|
04030406,
|
|
000000000008000000000000000000400000000000300000,
|
|
04030406,
|
|
000000000000000000000008000000000000000000000000,
|
|
|
|
#GOGOEND
|
|
|
|
|
|
#END
|
|
|
|
|
|
COURSE:Easy
|
|
LEVEL:3
|
|
BALLOON:16,9,16,9
|
|
SCOREINIT:7130
|
|
SCOREDIFF:0
|
|
|
|
|
|
#START
|
|
|
|
|
|
1110,
|
|
,
|
|
1110,
|
|
0044,
|
|
1110,
|
|
,
|
|
10100003,
|
|
03,
|
|
2,
|
|
2,
|
|
2,
|
|
2,
|
|
22,
|
|
22,
|
|
20000004,
|
|
,
|
|
1,
|
|
10010000,
|
|
1,
|
|
10010000,
|
|
12,
|
|
1022,
|
|
10010004,
|
|
02,
|
|
9,
|
|
,
|
|
00000008,
|
|
,
|
|
30303001,
|
|
01,
|
|
100100001,
|
|
0110,
|
|
40404002,
|
|
02,
|
|
5,
|
|
,
|
|
000000000000000000000008000000000000000000300000,
|
|
03,
|
|
|
|
#GOGOSTART
|
|
10101001,
|
|
0110,
|
|
10100001,
|
|
00001002,
|
|
00010002,
|
|
00010700,
|
|
,
|
|
00800001,
|
|
00101001,
|
|
0110,
|
|
10101002,
|
|
00010002,
|
|
00010002,
|
|
00010600,
|
|
,
|
|
000000000008000000000000000000600000000000000000,
|
|
,
|
|
000000000000000008000000000000000000000000000000,
|
|
|
|
#GOGOEND
|
|
11,
|
|
10001002,
|
|
01,
|
|
1110,
|
|
11,
|
|
12,
|
|
5,
|
|
000000000000000000000000000000800000000000000000,
|
|
9,
|
|
,
|
|
00000008,
|
|
,
|
|
30303001,
|
|
01,
|
|
10010001,
|
|
01,
|
|
40404002,
|
|
02,
|
|
5,
|
|
,
|
|
000000000000000000000080000000000000000000300000,
|
|
00003004,
|
|
04,
|
|
3,
|
|
3,
|
|
33,
|
|
30000002,
|
|
00000002,
|
|
00000700,
|
|
,
|
|
0080000
|
|
|
|
#GOGOSTART
|
|
1,
|
|
00101001,
|
|
0110,
|
|
10101002,
|
|
00010002,
|
|
00010002,
|
|
00010600,
|
|
,
|
|
000000000008000000000000000000600000000000000000,
|
|
000000000000000000000080000000000000000000000000,
|
|
|
|
#GOGOEND
|
|
|
|
|
|
#END
|
|
|