1125 lines
20 KiB
Plaintext
1125 lines
20 KiB
Plaintext
//TJADB Project
|
|
TITLE:Emma
|
|
TITLEJA:Emma
|
|
SUBTITLE:--BlackY feat. Risa Yuzuki
|
|
SUBTITLEJA:BlackY feat. Risa Yuzuki
|
|
BPM:333
|
|
WAVE:Emma.ogg
|
|
OFFSET:-0.558
|
|
DEMOSTART:86.822
|
|
|
|
COURSE:Edit
|
|
LEVEL:10
|
|
BALLOON:50,30,50,30,50,4,30
|
|
SCOREINIT:920
|
|
SCOREDIFF:0
|
|
|
|
#START
|
|
#BARLINEOFF
|
|
#MEASURE 5/4
|
|
500000000000000000000000000000000000000000000008000000000000,
|
|
|
|
#BARLINEON
|
|
#MEASURE 4/4
|
|
32,
|
|
#BRANCHSTART r,10,16
|
|
|
|
#N
|
|
#BARLINEOFF
|
|
22,
|
|
#BARLINEON
|
|
#MEASURE 8/4
|
|
2000002000002022,
|
|
222222222222,
|
|
1022202212121210, //N6
|
|
|
|
#GOGOSTART
|
|
4014014014014040,
|
|
#GOGOEND
|
|
0000300000002222,
|
|
1000001120020020, //N9
|
|
|
|
#GOGOSTART
|
|
3003003003003040,
|
|
1111111111111111,
|
|
#GOGOEND
|
|
30202022,
|
|
02020200, //N13
|
|
|
|
#GOGOSTART
|
|
1111111121111121,
|
|
1111111121121121,
|
|
#GOGOEND
|
|
30202022,
|
|
02020200, //N17
|
|
|
|
#GOGOSTART
|
|
10112111,
|
|
1111111121212122,
|
|
#GOGOEND
|
|
1120112101201121,
|
|
1120112101201222,
|
|
1120112101201121,
|
|
1120110122221111, //N23
|
|
|
|
1042012012012012,
|
|
0120120120112222,
|
|
1011202210112022,
|
|
1011202211112222, //N27
|
|
|
|
#MEASURE 6/4
|
|
100120100120,
|
|
#MEASURE 8/4
|
|
1001201011201022,
|
|
#MEASURE 6/4
|
|
100120100120,
|
|
#MEASURE 8/4
|
|
1001021210221122, //N31
|
|
|
|
#MEASURE 6/4
|
|
000000000100200000100000000010002000,
|
|
#MEASURE 8/4
|
|
200000002000000020000000200000000200100100200000,
|
|
#MEASURE 6/4
|
|
112120201121,
|
|
#MEASURE 8/4
|
|
2000200010012010, //N35
|
|
|
|
3001201111102011,
|
|
1111201120102111,
|
|
1011201111012010,
|
|
1111201121112011, //N39
|
|
|
|
3010201110102010,
|
|
1010201020112010,
|
|
1111111121111111,
|
|
500000000000000000000000000000000000000008000000600000000000000000000000000000000000000008000000, //N43
|
|
|
|
#MEASURE 4/4
|
|
#BPMCHANGE 166.5
|
|
#SCROLL 0.75
|
|
1022,
|
|
2000202010020220,
|
|
1011202010002022,
|
|
1011102011112222, //N47
|
|
|
|
1010200020121210,
|
|
1002202210001120,
|
|
100020002000200020002000100000000000200000100200,
|
|
1022222010112222, //N51
|
|
|
|
#MEASURE 8/4
|
|
#BPMCHANGE 333
|
|
#SCROLL 0.5
|
|
10212011,
|
|
0010200120000020,
|
|
0000200120100000,
|
|
1001201120002011, //N55
|
|
|
|
#SCROLL 0.54
|
|
1000201020001011,
|
|
#SCROLL 0.59
|
|
10212012,
|
|
#SCROLL 0.64
|
|
1010201020101120,
|
|
#SCROLL 0.69
|
|
1112102011121020, //N59
|
|
|
|
#SCROLL 0.75
|
|
7,
|
|
0,
|
|
000000000000000000000000000000000000000000000000000000000000000000000000000000000000000000000008,
|
|
#SCROLL 1
|
|
000000200000200111400000, //N63
|
|
|
|
#GOGOSTART
|
|
3002102022112120,
|
|
1122112210212120,
|
|
1002102020021020,
|
|
200000101010200000100000200100100100200000000000, //N67
|
|
|
|
500000000000000000000000000000000000000000000008000000000000000000000000200000100000200000000000,
|
|
2112112120202211,
|
|
2012112011222111,
|
|
2011221122221111, //N71
|
|
#GOGOEND
|
|
|
|
2002002030232030,
|
|
2222
|
|
#GOGOSTART
|
|
112210212120,
|
|
1004001020140010,
|
|
200000101010200000100000200100100100200000100000, //N75
|
|
|
|
500000000000000000000000000000000000000000000000000000000000000000000000000000000000000000000008,
|
|
0000201120112010,
|
|
1112102211121022,
|
|
10102020100200201010202010101010, //N79
|
|
|
|
2000200040014010,
|
|
2211221121212121,
|
|
#GOGOEND
|
|
7,
|
|
000000000000000000000000000000000000000000000008000000000000000000000000200000000000200000200000, //N83
|
|
|
|
222222222222,
|
|
1022202212121210,
|
|
#GOGOSTART
|
|
2011112011111120,
|
|
1121121121212122, //N87
|
|
#GOGOEND
|
|
|
|
1,
|
|
0,
|
|
0,
|
|
0,
|
|
0, //N92
|
|
|
|
#E
|
|
#BARLINEOFF
|
|
22,
|
|
#BARLINEON
|
|
#MEASURE 8/4
|
|
2000002000002222,
|
|
222222222222,
|
|
10202020202020201020102010201110, //E6
|
|
|
|
#GOGOSTART
|
|
4014014214214040,
|
|
#GOGOEND
|
|
0022322211112222,
|
|
1000001120020020, //E9
|
|
|
|
#GOGOSTART
|
|
3003003003003040,
|
|
10101020101020101020101020101111,
|
|
#GOGOEND
|
|
10202022,
|
|
02020200, //E13
|
|
|
|
#GOGOSTART
|
|
10101010101010102010101010101110,
|
|
10101010101010102010102010101110,
|
|
#GOGOEND
|
|
30202022,
|
|
02020200, //E17
|
|
|
|
#GOGOSTART
|
|
10112111,
|
|
10101010101010102010201011101110,
|
|
#GOGOEND
|
|
1122112111221121,
|
|
1122112111221221,
|
|
1122112111221121,
|
|
1122112121212122, //E23
|
|
|
|
1042112112112112,
|
|
1121121121221122,
|
|
1111222211112222,
|
|
10102020101020201110101011101010, //E27
|
|
|
|
#MEASURE 6/4
|
|
100120102120,
|
|
#MEASURE 8/4
|
|
10000010200010001010200010001110,
|
|
#MEASURE 6/4
|
|
100120102120,
|
|
#MEASURE 8/4
|
|
1001021210212212, //E31
|
|
|
|
#MEASURE 6/4
|
|
000000000000000000100100200000000000100000000000000000001000000020000000,
|
|
#MEASURE 8/4
|
|
200000002000000020000000200000000200100100200200,
|
|
#MEASURE 6/4
|
|
112120211121,
|
|
#MEASURE 8/4
|
|
2000200010012010, //E35
|
|
|
|
3001201111102011,
|
|
1111201121102111,
|
|
1011201111112011,
|
|
1111211121112111, //E39
|
|
|
|
3011201110112011,
|
|
1010211021112010,
|
|
1111111121111111,
|
|
500000000000000000000000000000000000000008000000600000000000000000000000000000000000000008000000, //E43
|
|
|
|
#MEASURE 4/4
|
|
#BPMCHANGE 166.5
|
|
#SCROLL 0.75
|
|
100000000000220000220000,
|
|
202000000000202000202000100000000200000200200000,
|
|
100000100100200000200000100000200000101010101010,
|
|
10002020102020001020202011102020, //E47
|
|
|
|
100000100000202000000000202000100200100200100000,
|
|
100000000200100200200200100000100000200200100200,
|
|
100020002000200020202000100000000000202000100200,
|
|
10002020201020201000101011101010, //E51
|
|
|
|
#MEASURE 8/4
|
|
#BPMCHANGE 333
|
|
#SCROLL 0.5
|
|
1000201120001011,
|
|
0010210120010022,
|
|
0000200120100000,
|
|
10000010200010102010002020001110, //E55
|
|
|
|
#SCROLL 0.54
|
|
1000201120001011,
|
|
#SCROLL 0.59
|
|
1000201120111020,
|
|
#SCROLL 0.64
|
|
1010201120101122,
|
|
#SCROLL 0.69
|
|
11101020101020201110102010102020, //E59
|
|
|
|
#SCROLL 0.75
|
|
7,
|
|
0,
|
|
000000000000000000000000000000000000000000000000000000000000000000000000000000000000000000000008,
|
|
#SCROLL 1
|
|
00000002200000002000111040000000, //E63
|
|
|
|
#GOGOSTART
|
|
3002102122112120,
|
|
10101020101020201110201020102020,
|
|
1002102021121020,
|
|
20001110200010102010101020101010, //E67
|
|
|
|
500000000000000000000000000000000000000000000008000000000000100000100000200000100000200000000000,
|
|
200100100200100100201010200100200100200200200100,
|
|
200000100200100100200000100100200200201010101010,
|
|
200111222111222222111111, //E71
|
|
#GOGOEND
|
|
|
|
2002002030232030,
|
|
20202020
|
|
#GOGOSTART
|
|
301020201110201020102020,
|
|
1004001020140010,
|
|
20001110200010002010101020101010, //E75
|
|
|
|
500000000000000000000000000000000000000000000000000000000000000000000000000000000000000000000008,
|
|
00000000200010102000111020001000,
|
|
11101020101020201110102010102020,
|
|
11102020100200201110202010101010, //E79
|
|
|
|
2000200040014010,
|
|
21101010211010102110201021102010,
|
|
#GOGOEND
|
|
7,
|
|
000000000000000000000000000000000000000000000008000000000000000000000000200000200000200000200000, //E83
|
|
|
|
222222222222,
|
|
1222222212121211,
|
|
#GOGOSTART
|
|
2111112111111121,
|
|
10102010102010102010201021102111, //E87
|
|
#GOGOEND
|
|
|
|
1,
|
|
0,
|
|
0,
|
|
0,
|
|
0, //E92
|
|
|
|
#M
|
|
#BARLINEOFF
|
|
22,
|
|
#BARLINEON
|
|
#MEASURE 8/4
|
|
20000000000220000000000020202020,
|
|
222222222222,
|
|
10202020202020201020102010201111, //M6
|
|
|
|
#GOGOSTART
|
|
20001020001120201120201120004000,
|
|
#GOGOEND
|
|
000000200200302020202020101010101010202020202020,
|
|
1000001120020020, //M9
|
|
|
|
#GOGOSTART
|
|
3003003003003040,
|
|
10101011101011101011101011111111,
|
|
#GOGOEND
|
|
100000200000200002200200,
|
|
02020200, //M13
|
|
|
|
#GOGOSTART
|
|
10101010101010102010101010101111,
|
|
10101010101010102110101110101111,
|
|
#GOGOEND
|
|
100000200000200002200200,
|
|
02020200, //M17
|
|
|
|
#GOGOSTART
|
|
10112111,
|
|
10101010101010102110111011111111,
|
|
#GOGOEND
|
|
10102020101020101010202010102011,
|
|
10102020101020101010201010112010,
|
|
10102020101020101010202010102011,
|
|
10102020101020101010201020102111, //M23
|
|
|
|
10004020101020101020111020101021,
|
|
10102010102010102110202010112020,
|
|
11101010211010101110101021101010,
|
|
11102010111020101111111121111111, //M27
|
|
|
|
#MEASURE 6/4
|
|
100120102120,
|
|
#MEASURE 8/4
|
|
10000010200010001111200010001111,
|
|
#MEASURE 6/4
|
|
100120102120,
|
|
#MEASURE 8/4
|
|
1001021210212212, //M31
|
|
|
|
#MEASURE 6/4
|
|
000000000000000000100100200000000000100000000000000000001000000020000000,
|
|
#MEASURE 8/4
|
|
200000000000000020000000000000002000000000000000200000000000000000200100100100100000200000200000,
|
|
#MEASURE 6/4
|
|
101020102000211110102010,
|
|
#MEASURE 8/4
|
|
2000200010012010, //M35
|
|
|
|
30000010200011101010100020001010,
|
|
10101010200010102110100020101010,
|
|
10001010200011101010101020001010,
|
|
10101010201010102110101020101010, //M39
|
|
|
|
30001010200011101000101020001010,
|
|
10001000201010002110101020001000,
|
|
1111111121111111,
|
|
500000000000000000000000000000000000000008000000600000000000000000000000000000000000000008000000, //M43
|
|
|
|
#MEASURE 4/4
|
|
#BPMCHANGE 166.5
|
|
#SCROLL 0.75
|
|
100000000000220000220000,
|
|
202000000000202000202000100000000200000100200000,
|
|
100000100100200000200000100000202020202020101010,
|
|
10002010102020001020202011112020, //M47
|
|
|
|
100000100000202000000000202000100200100200100000,
|
|
100000000200100200200200100000101010200200100200,
|
|
100020002000200020202000100000000000202000100200,
|
|
10002020201020201000101011101010, //M51
|
|
|
|
#MEASURE 8/4
|
|
#BPMCHANGE 333
|
|
#SCROLL 0.5
|
|
10000000200010112000000010001010,
|
|
00001000201000112000001000002020,
|
|
00000000200000112000100000000000,
|
|
10000010200010112010002020001111, //M55
|
|
|
|
#SCROLL 0.54
|
|
10000000200010112000000010001010,
|
|
#SCROLL 0.59
|
|
10000000200010112000101010002000,
|
|
#SCROLL 0.64
|
|
10001000200010112000100010102020,
|
|
#SCROLL 0.69
|
|
11101020111020201110102011102020, //M59
|
|
|
|
#SCROLL 0.75
|
|
7,
|
|
0,
|
|
000000000000000000000000000000000000000000000000000000000000000000000000000000000000000000000008,
|
|
#SCROLL 1
|
|
00000002200000002000111120000000, //M63
|
|
|
|
#GOGOSTART
|
|
30000020100020102020111020102000,
|
|
10101020101020201110201020102020,
|
|
10000020100020002010112010002000,
|
|
20001111200010102010111020101010, //M67
|
|
|
|
70000080222211111000101020102010,
|
|
20101020101021112010201020202010,
|
|
200000100200100100200000100100200200201010101010,
|
|
200000000000200010001000200020002000100010001000200020002000200020002000100100100100100100100100, //M71
|
|
#GOGOEND
|
|
|
|
2002002030232030,
|
|
20202022
|
|
#GOGOSTART
|
|
101020201110201020102020,
|
|
1004001020140010,
|
|
20101111201010102110111021111111, //M75
|
|
|
|
500000000000000000000000000000000000000000000000000000000000000000000000000000000000000000000008,
|
|
00000000200010102000111020001000,
|
|
11102020101120201110202010112020,
|
|
11102020101201201111202011101111, //M79
|
|
|
|
2000200040014010,
|
|
21111111211111112111211121112111,
|
|
#GOGOEND
|
|
7,
|
|
000000000000000000000000000000000000000000000008000000000000000000000000200000200000200000200000, //M83
|
|
|
|
222222222222,
|
|
1222222212121211,
|
|
#GOGOSTART
|
|
21101011101021101011101011102010,
|
|
11102011102011102111211121212121, //M87
|
|
#GOGOEND
|
|
|
|
1,
|
|
0,
|
|
0,
|
|
0,
|
|
0, //M92
|
|
#BRANCHEND
|
|
#END
|
|
|
|
|
|
COURSE:Oni
|
|
LEVEL:7
|
|
BALLOON:24
|
|
SCOREINIT:1740
|
|
SCOREDIFF:0
|
|
|
|
#START
|
|
#BARLINEOFF
|
|
#MEASURE 5/4
|
|
#SCROLL 0.5
|
|
0,
|
|
|
|
#BARLINEON
|
|
#MEASURE 4/4
|
|
32,
|
|
#BARLINEOFF
|
|
22,
|
|
#BARLINEON
|
|
#MEASURE 8/4
|
|
20020000,
|
|
2,
|
|
20202222, //6
|
|
|
|
#GOGOSTART
|
|
3003003003003030,
|
|
#GOGOEND
|
|
0300,
|
|
1000002220020020, //9
|
|
|
|
#GOGOSTART
|
|
3003003003003030,
|
|
600000000000000000000000000000000000000000000000000000000000000000000000000000000008000000000000,
|
|
#GOGOEND
|
|
3,
|
|
0, //13
|
|
|
|
#GOGOSTART
|
|
1010101011101010,
|
|
1110111011111110,
|
|
#GOGOEND
|
|
3,
|
|
0, //17
|
|
|
|
#GOGOSTART
|
|
2020202022202020,
|
|
2220222022222220,
|
|
#GOGOEND
|
|
1110111010111000,
|
|
1110111010101110,
|
|
1110111010111000,
|
|
1110111022222020, //23
|
|
|
|
1001001001001001,
|
|
0010010010222220,
|
|
1011100020112000,
|
|
1011201110112000, //27
|
|
|
|
#MEASURE 6/4
|
|
301101,
|
|
#MEASURE 8/4
|
|
2000202000202011,
|
|
#MEASURE 6/4
|
|
101101,
|
|
#MEASURE 8/4
|
|
2002002210020020, //31
|
|
|
|
#MEASURE 6/4
|
|
100000100100002020,
|
|
#MEASURE 8/4
|
|
200000002000000020000000200000000100000000200000,
|
|
#MEASURE 6/4
|
|
111020111020,
|
|
#MEASURE 8/4
|
|
2212, //35
|
|
|
|
3000201011102010,
|
|
1110201020112010,
|
|
1000201011102010,
|
|
1110201020112020, //39
|
|
|
|
1000201011102010,
|
|
1110201020112000,
|
|
1111101011111010,
|
|
2222202022222000, //43
|
|
|
|
#MEASURE 4/4
|
|
#BPMCHANGE 166.5
|
|
#SCROLL 0.75
|
|
3022,
|
|
1000101020002220,
|
|
1000101020001110,
|
|
1000100022222020, //47
|
|
|
|
1000100020002220,
|
|
1000111020002220,
|
|
1011101020001110,
|
|
1000100022222020, //51
|
|
|
|
#MEASURE 8/4
|
|
#BPMCHANGE 333
|
|
#SCROLL 0.5
|
|
1110111010111010,
|
|
0010111010112000,
|
|
1110111010111000,
|
|
1110111022222000, //55
|
|
|
|
1110111010111010,
|
|
0010111010112000,
|
|
1110111010222020,
|
|
500000000000000000000000000000000000000000000000000000000000000000000000000000000008000000000000, //59
|
|
|
|
3,
|
|
0,
|
|
0,
|
|
0444, //63
|
|
|
|
#GOGOSTART
|
|
3001002011102020,
|
|
1110222010221020,
|
|
1001001020020020,
|
|
1011100022102000, //67
|
|
|
|
3000222210001111,
|
|
1001001120202220,
|
|
1001002010111110,
|
|
2011201022102000, //71
|
|
#GOGOEND
|
|
|
|
3002002030202020,
|
|
2220
|
|
#GOGOSTART
|
|
300010221020,
|
|
1003001020040020,
|
|
1011100022102000, //75
|
|
|
|
3000111020201111,
|
|
1011201110112000,
|
|
1020112010221020,
|
|
1111202011112000, //79
|
|
|
|
3344,
|
|
600000000000000000000000000000000000000000000000000000000000000000000000000000000008000000000000,
|
|
#GOGOEND
|
|
7,
|
|
000000000000000000000000000000000000000000000008000000000000000000000000000000000000000000000000, //83
|
|
|
|
2,
|
|
20202222,
|
|
#GOGOSTART
|
|
10010001,
|
|
0010111011101111, //87
|
|
#GOGOEND
|
|
|
|
1,
|
|
0,
|
|
0,
|
|
0,
|
|
0, //92
|
|
#END
|
|
|
|
|
|
COURSE:Hard
|
|
LEVEL:5
|
|
BALLOON:21,9,18,21,21
|
|
SCOREINIT:3650
|
|
SCOREDIFF:0
|
|
|
|
#START
|
|
#BARLINEOFF
|
|
#MEASURE 5/4
|
|
#SCROLL 0.5
|
|
0,
|
|
|
|
#BARLINEON
|
|
#MEASURE 4/4
|
|
3,
|
|
#BARLINEOFF
|
|
0,
|
|
#BARLINEON
|
|
#MEASURE 8/4
|
|
0,
|
|
2,
|
|
2220,
|
|
|
|
#GOGOSTART
|
|
3003003003003030,
|
|
#GOGOEND
|
|
0300,
|
|
1000000020020020, //9
|
|
|
|
#GOGOSTART
|
|
3003003003003030,
|
|
600000000000000000000000000000000000000000000000000000000000000000000000000000000008000000000000,
|
|
#GOGOEND
|
|
3,
|
|
0,
|
|
|
|
#GOGOSTART
|
|
500000000000000000000000000000000008000000000000500000000000000000000000000000000008000000000000,
|
|
500000000000000000000000000000000008000000000000500000000000000000000000000000000008000000000000,
|
|
#GOGOEND
|
|
1,
|
|
0, ///17
|
|
|
|
#GOGOSTART
|
|
600000000000000000000000000000000008000000000000600000000000000000000000000000000008000000000000,
|
|
600000000000000000000000000000000008000000000000600000000000000000000000000000000008000000000000,
|
|
#GOGOEND
|
|
10101011,
|
|
10101022,
|
|
10101011,
|
|
10102222,
|
|
|
|
7,
|
|
000000000000000000000000000000000000000000000008000000000000000000000000000000000000000000000000,
|
|
3333,
|
|
4444, //27
|
|
|
|
#MEASURE 6/4
|
|
101101,
|
|
#MEASURE 8/4
|
|
20220220,
|
|
#MEASURE 6/4
|
|
101101,
|
|
#MEASURE 8/4
|
|
2002002020020020,
|
|
|
|
#MEASURE 6/4
|
|
100000100100007000,
|
|
#MEASURE 8/4
|
|
000000000000000000000000000000000000000000000008000000000000000000000000000000000000000000000000,
|
|
#MEASURE 6/4
|
|
101101,
|
|
#MEASURE 8/4
|
|
2222, //35
|
|
|
|
10101122,
|
|
10112000,
|
|
10101122,
|
|
10112000,
|
|
|
|
10101122,
|
|
10112000,
|
|
500000000000000000000000000000000008000000000000500000000000000000000000000000000008000000000000,
|
|
600000000000000000000000000000000008000000000000600000000000000000000000000008000000000000000000, //43
|
|
|
|
#MEASURE 4/4
|
|
#BPMCHANGE 166.5
|
|
#SCROLL 0.75
|
|
3022,
|
|
10112000,
|
|
10112020,
|
|
10102222,
|
|
|
|
10102011,
|
|
10112000,
|
|
11102011,
|
|
10102222, //51
|
|
|
|
#MEASURE 8/4
|
|
#BPMCHANGE 333
|
|
#SCROLL 0.5
|
|
10121011,
|
|
02101022,
|
|
10121011,
|
|
12102222,
|
|
|
|
10121011,
|
|
02101022,
|
|
10121011,
|
|
500000000000000000000000000000000000000000000000000000000000000000000000000000000008000000000000, //59
|
|
|
|
3,
|
|
0,
|
|
0,
|
|
0444, //63
|
|
|
|
#GOGOSTART
|
|
3001001020202020,
|
|
11221122,
|
|
1001001020020020,
|
|
1122,
|
|
|
|
500000000000000000000000000000000000000000000000000000000000000000000008000000000000000000000000,
|
|
1001001020202020,
|
|
1001001070000000,
|
|
08, //71
|
|
#GOGOEND
|
|
|
|
1002002010202020,
|
|
20
|
|
#GOGOSTART
|
|
301122,
|
|
1001001020020020,
|
|
1122,
|
|
|
|
500000000000000000000000000000000000000000000000000000000000000000000000000000000000000000000008,
|
|
0122,
|
|
7,
|
|
000000000000000000000000000000000000000000000008000000000000000000000000000000000000000000000000, //79
|
|
|
|
3344,
|
|
600000000000000000000000000000000000000000000000000000000000000000000000000000000008000000000000,
|
|
#GOGOEND
|
|
7,
|
|
000000000000000000000000000000000000000000000008000000000000000000000000000000000000000000000000,
|
|
|
|
2,
|
|
2220,
|
|
#GOGOSTART
|
|
6,
|
|
000000000000000000000000000000000000000000000000000000000000000000000000000000000008000000000000, //87
|
|
#GOGOEND
|
|
|
|
3,
|
|
0,
|
|
0,
|
|
0,
|
|
0, //92
|
|
#END
|
|
|
|
|
|
COURSE:Normal
|
|
LEVEL:5
|
|
BALLOON:17,12,5,12,12,12
|
|
SCOREINIT:5800
|
|
SCOREDIFF:0
|
|
|
|
#START
|
|
#BARLINEOFF
|
|
#MEASURE 5/4
|
|
#SCROLL 0.5
|
|
0,
|
|
|
|
#BARLINEON
|
|
#MEASURE 4/4
|
|
3,
|
|
#BARLINEOFF
|
|
0,
|
|
#BARLINEON
|
|
#MEASURE 8/4
|
|
0,
|
|
2,
|
|
22,
|
|
|
|
#GOGOSTART
|
|
600000000000000000000000000000000000000000000000000000000000000000000000000000000008000000000000,
|
|
#GOGOEND
|
|
0300,
|
|
12, //9
|
|
|
|
#GOGOSTART
|
|
9,
|
|
000000000000000000000000000000000000000000000009000000000000000000000000000000000000000000000008,
|
|
#GOGOEND
|
|
0,
|
|
0,
|
|
|
|
#GOGOSTART
|
|
500000000000000000000000000000000008000000000000500000000000000000000000000000000008000000000000,
|
|
500000000000000000000000000000000008000000000000500000000000000000000000000000000008000000000000,
|
|
#GOGOEND
|
|
1,
|
|
0, //17
|
|
|
|
#GOGOSTART
|
|
600000000000000000000000000000000008000000000000600000000000000000000000000000000008000000000000,
|
|
600000000000000000000000000000000008000000000000600000000000000000000000000000000008000000000000,
|
|
#GOGOEND
|
|
10101011,
|
|
1120,
|
|
10101011,
|
|
1120,
|
|
|
|
7,
|
|
000000000000000000000000000000000000000000000008000000000000000000000000000000000000000000000000,
|
|
3333,
|
|
600000000000000000000000000000000000000000000000000000000000000000000008000000000000000000000000, //27
|
|
|
|
#MEASURE 6/4
|
|
101100,
|
|
#MEASURE 8/4
|
|
20220000,
|
|
#MEASURE 6/4
|
|
101100,
|
|
#MEASURE 8/4
|
|
22,
|
|
|
|
#MEASURE 6/4
|
|
100000100100007000,
|
|
#MEASURE 8/4
|
|
000000000000000000000000000000000000000000000008000000000000000000000000000000000000000000000000,
|
|
#MEASURE 6/4
|
|
101100,
|
|
#MEASURE 8/4
|
|
2222, //35
|
|
|
|
10001011,
|
|
12,
|
|
10001011,
|
|
12,
|
|
|
|
10001011,
|
|
12,
|
|
500000000000000000000000000000000008000000000000500000000000000000000000000000000008000000000000,
|
|
600000000000000000000000000000000008000000000000600000000000000000000008000000000000000000000000, //43
|
|
|
|
#MEASURE 4/4
|
|
#BPMCHANGE 166.5
|
|
#SCROLL 0.75
|
|
32,
|
|
10112000,
|
|
12,
|
|
10102220,
|
|
|
|
12,
|
|
10112000,
|
|
12,
|
|
10102220, //51
|
|
|
|
#MEASURE 8/4
|
|
#BPMCHANGE 333
|
|
#SCROLL 0.5
|
|
10101011,
|
|
0120,
|
|
10101011,
|
|
1120,
|
|
|
|
10101011,
|
|
0120,
|
|
10101011,
|
|
500000000000000000000000000000000000000000000000000000000000000000000000000000000000000000000008, //59
|
|
|
|
0,
|
|
0,
|
|
0,
|
|
0444, //63
|
|
|
|
#GOGOSTART
|
|
30002220,
|
|
11102000,
|
|
1001000020020000,
|
|
1122,
|
|
|
|
500000000000000000000000000000000000000000000000000000000000000000000008000000000000000000000000,
|
|
10002220,
|
|
7,
|
|
000000000000000000000000000000000000000000000008000000000000000000000000000000000000000000000000, //71
|
|
#GOGOEND
|
|
|
|
10001022,
|
|
2
|
|
#GOGOSTART
|
|
120,
|
|
1001000020020000,
|
|
1122,
|
|
|
|
500000000000000000000000000000000000000000000000000000000000000000000000000000000000000000000008,
|
|
0122,
|
|
7,
|
|
000000000000000000000000000000000000000000000008000000000000000000000000000000000000000000000000, //79
|
|
|
|
3344,
|
|
600000000000000000000000000000000000000000000000000000000000000000000000000000000008000000000000,
|
|
#GOGOEND
|
|
7,
|
|
000000000000000000000000000000000000000000000008000000000000000000000000000000000000000000000000,
|
|
|
|
2,
|
|
22,
|
|
#GOGOSTART
|
|
6,
|
|
000000000000000000000000000000000000000000000000000000000000000000000000000000000008000000000000, //87
|
|
#GOGOEND
|
|
|
|
3,
|
|
0,
|
|
0,
|
|
0,
|
|
0, //92
|
|
#END
|
|
|
|
|
|
COURSE:Easy
|
|
LEVEL:3
|
|
BALLOON:13,10,4,10,10,10
|
|
SCOREINIT:8260
|
|
SCOREDIFF:0
|
|
|
|
#START
|
|
#BARLINEOFF
|
|
#MEASURE 5/4
|
|
#SCROLL 0.5
|
|
0,
|
|
|
|
#BARLINEON
|
|
#MEASURE 4/4
|
|
3,
|
|
#BARLINEOFF
|
|
0,
|
|
#BARLINEON
|
|
#MEASURE 8/4
|
|
0,
|
|
2,
|
|
22,
|
|
|
|
#GOGOSTART
|
|
600000000000000000000000000000000000000000000000000000000000000000000000000000000008000000000000,
|
|
#GOGOEND
|
|
0300,
|
|
12, //9
|
|
|
|
#GOGOSTART
|
|
9,
|
|
000000000000000000000000000000000000000000000009000000000000000000000000000000000000000000000008,
|
|
#GOGOEND
|
|
0,
|
|
0,
|
|
|
|
#GOGOSTART
|
|
5,
|
|
000000000000000000000000000000000000000000000000000000000000000000000000000000000000000000000008,
|
|
#GOGOEND
|
|
0,
|
|
0, //17
|
|
|
|
#GOGOSTART
|
|
6,
|
|
000000000000000000000000000000000000000000000000000000000008000000000000000000000000000000000000,
|
|
#GOGOEND
|
|
1110,
|
|
1120,
|
|
1110,
|
|
1120,
|
|
|
|
7,
|
|
000000000000000000000000000000000000000000000008000000000000000000000000000000000000000000000000,
|
|
3333,
|
|
600000000000000000000000000000000000000000000000000000000000000000000008000000000000000000000000, //27
|
|
|
|
#MEASURE 6/4
|
|
110,
|
|
#MEASURE 8/4
|
|
2200,
|
|
#MEASURE 6/4
|
|
110,
|
|
#MEASURE 8/4
|
|
22,
|
|
|
|
#MEASURE 6/4
|
|
100000100000007000,
|
|
#MEASURE 8/4
|
|
000000000000000000000000000000000000000000000008000000000000000000000000000000000000000000000000,
|
|
#MEASURE 6/4
|
|
110,
|
|
#MEASURE 8/4
|
|
22, //35
|
|
|
|
1001,
|
|
12,
|
|
1001,
|
|
12,
|
|
|
|
1001,
|
|
12,
|
|
500000000000000000000000000000000000000000000000000000000000000000000000000000000008000000000000,
|
|
600000000000000000000000000000000000000000000000000000000008000000000000000000000000000000000000, //43
|
|
|
|
#MEASURE 4/4
|
|
#BPMCHANGE 166.5
|
|
#SCROLL 0.75
|
|
32,
|
|
02,
|
|
12,
|
|
02,
|
|
|
|
12,
|
|
02,
|
|
12,
|
|
02, //51
|
|
|
|
#MEASURE 8/4
|
|
#BPMCHANGE 333
|
|
#SCROLL 0.5
|
|
1110,
|
|
0120,
|
|
1110,
|
|
1120,
|
|
|
|
1110,
|
|
0120,
|
|
1110,
|
|
500000000000000000000000000000000000000000000000000000000000000000000000000000000000000000000008, //59
|
|
|
|
0,
|
|
0,
|
|
0,
|
|
0333, //63
|
|
|
|
#GOGOSTART
|
|
3022,
|
|
1120,
|
|
12,
|
|
1122,
|
|
|
|
500000000000000000000000000000000000000000000000000000000008000000000000000000000000000000000000,
|
|
1022,
|
|
7,
|
|
000000000000000000000000000000000000000000000008000000000000000000000000000000000000000000000000, //71
|
|
#GOGOEND
|
|
|
|
44,
|
|
0
|
|
#GOGOSTART
|
|
120,
|
|
12,
|
|
1122,
|
|
|
|
500000000000000000000000000000000000000000000000000000000000000000000000000000000000000000000008,
|
|
0111,
|
|
7,
|
|
000000000000000000000000000000000000000000000008000000000000000000000000000000000000000000000000, //79
|
|
|
|
3333,
|
|
600000000000000000000000000000000000000000000000000000000000000000000000000000000008000000000000,
|
|
#GOGOEND
|
|
7,
|
|
000000000000000000000000000000000000000000000008000000000000000000000000000000000000000000000000,
|
|
|
|
2,
|
|
22,
|
|
#GOGOSTART
|
|
6,
|
|
000000000000000000000000000000000000000000000000000000000000000000000000000000000008000000000000, //87
|
|
#GOGOEND
|
|
|
|
3,
|
|
0,
|
|
0,
|
|
0,
|
|
0, //92
|
|
#END
|