511 lines
18 KiB
Plaintext
511 lines
18 KiB
Plaintext
//TJADB Project
|
|
TITLE:Moeyo Sapphire
|
|
TITLEJA:燃えよサファイア
|
|
SUBTITLE:--Niwashi
|
|
SUBTITLEJA:庭師
|
|
BPM:175
|
|
WAVE:Moeyo Sapphire.ogg
|
|
OFFSET:-2.074
|
|
DEMOSTART:79.559
|
|
|
|
COURSE:Oni
|
|
LEVEL:9
|
|
BALLOON:6,2,2,2,3,7
|
|
SCOREINIT:1260
|
|
SCOREDIFF:0
|
|
|
|
|
|
#START
|
|
|
|
|
|
#MEASURE 2/4
|
|
100010001000100000100200,
|
|
#MEASURE 4/4
|
|
100000000200000000100000100000000200000000100000,
|
|
100000000200000000100000100200000100200000100000,
|
|
100000000200000000100000100000000200000000100000,
|
|
100000000200000000100000100200000100200000100000,
|
|
300000001000000020000000300000002000000020000000,
|
|
300000001000100020002000300000002000100020001000,
|
|
200000000100100100100000000100100100500000000000,
|
|
000000000000000000000008000000000000000000100200,
|
|
100000001000000020000000100000002000100010000000,
|
|
100000002000000010000000700000000000000080000000,
|
|
100000001000000020000000100000002000100000001000,
|
|
100000002000200000002020100000002000100010000000,
|
|
100000002000000010000000100000001000200020000000,
|
|
400000000000400000000000300000000000100000200000,
|
|
100100200100000100200100000100100200100000100700,
|
|
000000800000101010100000200000100100200200100000,
|
|
100000200100000100200000100000000000200000100000,
|
|
100000100200000000200200100100200200100100200200,
|
|
100000000100000000200100100000000200100000200200,
|
|
100000000100000000200000100000000100100000100200,
|
|
100000100200000100200000100000000100200000000000,
|
|
400000000000400000000000300000000000100000200000,
|
|
100100200100000100200100000100100200100000100700,
|
|
000000800000100100100100200200100100200200200000,
|
|
400000000000000000200200100000100000100100200200,
|
|
100100100000100100200200200000100100100100200200,
|
|
000000400000000000101010100000100000200000100000,
|
|
202020200000100000202020200000100000200000100000,
|
|
100200100000100200100000100200100000100200100000,
|
|
101010100000100100100000200000200200000000100100,
|
|
200000100200000100100100200000100200000100100100,
|
|
100000000100000100000100000100000100100000200200,
|
|
|
|
#GOGOSTART
|
|
100000200100000100200000200000000000100000000000,
|
|
100000100200000000200200100100200200100100200200,
|
|
100000000100000000200100100000000200100000200200,
|
|
100000000100000000200000100000000100200200100000,
|
|
100000002000000010000000100000000000200000000000,
|
|
100000000000300000000000300000000000100000200000,
|
|
100100200100000100200100000100100200100000100700,
|
|
000000800000200200200200200200000200200000100000,
|
|
|
|
#GOGOEND
|
|
100000000200100000000200100000000200100000100200,
|
|
100000100100200000101010100000100000100100100100,
|
|
100000101010100000101020200000202010100000101010,
|
|
100000100200100000100000200000100000100000000000,
|
|
100000000100200000200000102000000100200000200000,
|
|
100000200200100000200100100000000000400000000000,
|
|
200000101010100000200000101010100000100000200000,
|
|
100100200200100100200200100100100100100100100000,
|
|
400000000000000000100000100000200100000000200000,
|
|
200000000100000000100000200000000200100000100000,
|
|
100100100200100100100200100100100200100100100200,
|
|
100100200200100100200200100000000000100000200000,
|
|
400000000000200010001000400000000000100020002000,
|
|
300000000000100000000000200200100100200200100100,
|
|
100001001000010020000200100001001000010010000100,
|
|
200002001000010010000100100001007000000008000000,
|
|
|
|
#GOGOSTART
|
|
100000000100000000200000100000100000200000200100,
|
|
000100000100200000100000100000000000200000200100,
|
|
000100000100200000100000100000000000200000200100,
|
|
000100000100200000200000300000000400000000100100,
|
|
000100200000200200000200100000100100000100200000,
|
|
200200000200100000100200000100000000100000200000,
|
|
100100200100000100200100000100100200100000100500,
|
|
000000000000000000008000000300000000300000300000,
|
|
|
|
#GOGOEND
|
|
200000000000202000000000000000000000202000002000,
|
|
200000200000000000000000000000000000000200200200,
|
|
100010001000200200000000200200000200000000100000,
|
|
100000100100000000000000000100000000100000100000,
|
|
#MEASURE 5/8
|
|
4002020020,
|
|
2002020020,
|
|
2002020020,
|
|
2002020020,
|
|
#MEASURE 4/4
|
|
200000200200000200000200000200200000200000200000,
|
|
200000200200000200000200000000000000000000000000,
|
|
100000000100000000200000200000000000100000000000,
|
|
500000000000000000000000000000000008000000000000,
|
|
100000000100000000200000100000000000100000000000,
|
|
100000000100000000200000100000000000000000000000,
|
|
300000000000100000100000200000100000100000200000,
|
|
100000100000200000200000200000100000100000200000,
|
|
100010002000100000001000100000001000100010001000,
|
|
200020002000200020002000200100100100100000000000,
|
|
|
|
#GOGOSTART
|
|
100000100200000100200000200000000000100000000000,
|
|
100000200100000000200200100100200200100100200200,
|
|
100100100100100100100100700000000000000000800000,
|
|
300000000300000000400000300000000000000000000000,
|
|
202000001000000020000000100000000000200000000000,
|
|
101000000000300000000000300000000000100000200000,
|
|
100100200100000100200100000100100200100000100100,
|
|
100200100000100200100000100100200100000100100100,
|
|
200100000100100100200100000100100100200100000100,
|
|
001010100000200000200000101010100000100000100500,
|
|
000000000000000000000000000000000000008000000000,
|
|
300000002010100000000000000000000000000000000000,
|
|
|
|
#GOGOEND
|
|
|
|
|
|
#END
|
|
|
|
|
|
COURSE:Hard
|
|
LEVEL:7
|
|
BALLOON:4,10,8,3,22,10,11
|
|
SCOREINIT:2450
|
|
SCOREDIFF:0
|
|
|
|
|
|
#START
|
|
|
|
|
|
#MEASURE 2/4
|
|
7008,
|
|
#MEASURE 4/4
|
|
100000000100000000100000200000000200000000200000,
|
|
100000000100000000100000100100000100100000000000,
|
|
100000000100000000100000200000000200000000200000,
|
|
100000000100000000100000100100000100100000000000,
|
|
300000001000000010000000300000002000000020000000,
|
|
300000001000100010000000300000002000200020000000,
|
|
9,
|
|
8,
|
|
100000001000000020000000200000000000100000000000,
|
|
100000002000000000000000000000000000000000000000,
|
|
100000001000000020000000200000000000100000000000,
|
|
100000002000000000000000100000000000000000000000,
|
|
100000001000000020000000200000000000200000000000,
|
|
300000000000300000000000300000000000100000200000,
|
|
500000000000000000000000000000000000000000000000,
|
|
000000000000000000000008000000000000000000000000,
|
|
100000000100000000200000200000000000100000000000,
|
|
100000000200000000000000000000000000000000000000,
|
|
100000000100000000200000200000000000100000000000,
|
|
100000000200000000200000100000000000000000000000,
|
|
100000000100000000200000200000000000100000000000,
|
|
300000000000300000000000300000000000100000200000,
|
|
500000000000000000000000000000000000000000000000,
|
|
000000000000000000000008000000000000000000000000,
|
|
300000000000000000200000200000200000100100100000,
|
|
100000200000100000200000100000100000200000100000,
|
|
000000400000000000200000200000200000200000000000,
|
|
100000200000100000100000200000100000100000000000,
|
|
100000200000100000100000100000200000100000100000,
|
|
100000200000100000100000100000200200000000000000,
|
|
100000100100000000200000100000100100000000200000,
|
|
700000000000000000000000000000000000800000000000,
|
|
|
|
#GOGOSTART
|
|
100000000100000000200000200000000000100000000000,
|
|
100000000200000000100000200200200000200000200000,
|
|
100000000100000000200000200000000000100000000000,
|
|
100000000200000000200000100000000000100100100000,
|
|
100000001000000020000000200000000000200000000000,
|
|
100000000000300000000000300000000000100000200000,
|
|
500000000000000000000000000000000000000000000000,
|
|
000000000008000000000000000000000000000000000000,
|
|
|
|
#GOGOEND
|
|
100000000000100000000000100000000000200000000000,
|
|
100000100000200000100000100000000000100000100000,
|
|
100000100000200000100000200000100000200000100000,
|
|
100000100100100000100000100000000000000000000000,
|
|
200000000200200000200000100000000100100000100000,
|
|
100000100000100000100100100000000000400000000000,
|
|
100000100000200000200000100000100000200000100000,
|
|
100000100100100000100000100000100000100000200000,
|
|
300000000000000000100000100000100100000000100000,
|
|
200000000200000000200000200000000000200000000000,
|
|
100000100000200000200000100000100000200000200000,
|
|
100100100000100100100000100000000000000000000000,
|
|
400000000000200000002000400000000000100000001000,
|
|
300000000000100000000000200200200000200000000000,
|
|
100000001000000020000000100000001000000010000000,
|
|
211178,
|
|
|
|
#GOGOSTART
|
|
100000000100000000200000200000100000200000200000,
|
|
000100000000100000100000100000000000200000200000,
|
|
000100000000100000100000100000000000200000200000,
|
|
000100000000100000100000300000000400000000700000,
|
|
,
|
|
08,
|
|
9,
|
|
8,
|
|
|
|
#GOGOEND
|
|
200000000000000000000000000000000000000000000000,
|
|
200000000000000000000000000000000000000000000000,
|
|
400000000000000000000000000000000000000000000000,
|
|
200000000000000000000000000000000000000000000000,
|
|
#MEASURE 5/8
|
|
400000000000000000000000000000,
|
|
200000000000000000000000000000,
|
|
200000000000000000000000000000,
|
|
200000000000000000000000000000,
|
|
#MEASURE 4/4
|
|
200000000000000200000200000000000000000000000000,
|
|
200000000000000200000200000000000000000000000000,
|
|
100000000100000000200000200000000000100000000000,
|
|
500000000000000000000000000000000008000000000000,
|
|
100000000100000000200000100000000000100000000000,
|
|
100000000100000000200000100000000000000000000000,
|
|
300000000000100000100000200000000000100000000000,
|
|
100000100000200000200000200000000000100000000000,
|
|
100010001000100000001000100000000000100000000000,
|
|
500000000000000000000000000000000008000000000000,
|
|
|
|
#GOGOSTART
|
|
100000000100000000200000200000000000100000000000,
|
|
100000000200000000100000200000200000200200200000,
|
|
100000000100000000200000200000000000100000000000,
|
|
300000000300000000400000300000000000000000000000,
|
|
200000000200000000200000100000000000200000000000,
|
|
100000000000300000000000300000000000100000200000,
|
|
500000000000000000000000000000000008000000000500,
|
|
000000000000000000000000000008000000000000100100,
|
|
100100000000100100100100000000100100100100000000,
|
|
100010000000100000002000200020000000100000009000,
|
|
000000000000000000000000000000000000000000000008,
|
|
|
|
#GOGOEND
|
|
|
|
|
|
#END
|
|
|
|
|
|
COURSE:Normal
|
|
LEVEL:6
|
|
BALLOON:3,8,5,14,15,8,9
|
|
SCOREINIT:4440
|
|
SCOREDIFF:0
|
|
|
|
|
|
#START
|
|
|
|
|
|
#MEASURE 2/4
|
|
7008,
|
|
#MEASURE 4/4
|
|
100000000000000000000000100000000000000000000000,
|
|
100000000000000000000000100000000000100000000000,
|
|
100000000000000000000000100000000000000000000000,
|
|
100000000000000000000000100000000000100000000000,
|
|
300000000000000000000000300000000000000000000000,
|
|
300000000000000000000000300000000000000000000000,
|
|
9,
|
|
8,
|
|
100000000000000020000000200000000000100000000000,
|
|
100000000000000000000000000000000000000000000000,
|
|
100000000000000020000000200000000000100000000000,
|
|
100000000000000000000000100000000000000000000000,
|
|
100000000000000020000000200000000000200000000000,
|
|
300000000000300000000000300000000000000000000000,
|
|
500000000000000000000000000000000000000000000000,
|
|
000000000000000000000008000000000000000000000000,
|
|
100000000000000020000000200000000000100000000000,
|
|
100000000000000000000000000000000000000000000000,
|
|
100000000000000020000000200000000000100000000000,
|
|
100000000000000000000000100000000000000000000000,
|
|
100000000000000020000000200000000000200000000000,
|
|
300000000000300000000000300000000000000000000000,
|
|
500000000000000000000000000000000000000000000000,
|
|
000000000000000000000008000000000000000000000000,
|
|
300000000000000000200000000000000000100000000000,
|
|
000000200000000000000000100000100000000000100000,
|
|
000000400000000000000000200000200000200000000000,
|
|
100000000000000000100000000000000000000000000000,
|
|
100000000000200000000000100000000000200000000000,
|
|
100000000000000000000000200000200000000000000000,
|
|
100000000000000000000000100000000000000000000000,
|
|
700000000000000000000000000000000000800000000000,
|
|
|
|
#GOGOSTART
|
|
100000000000000000100000100000000000100000000000,
|
|
100000000000000000000000000000000000000000000000,
|
|
100000000000000000100000100000000000100000000000,
|
|
100000000000000000100000100000000000000000000000,
|
|
200000000000000000000000200000000000200000000000,
|
|
100000000000300000000000300000000000000000000000,
|
|
500000000000000000000000000000000000000000000000,
|
|
000000000008000000000000000000000000000000000000,
|
|
|
|
#GOGOEND
|
|
100000000000100000000000100000000000200000000000,
|
|
100000100000100000000000100000000000000000000000,
|
|
100000000000100000000000200000000000200000000000,
|
|
100000100000100000000000100000000000000000000000,
|
|
200000000000200000000000100000000000200000000000,
|
|
100000100000100000000000100000000000000000000000,
|
|
200000000000200000000000100000000000200000000000,
|
|
100000100000100000000000100000100000100000000000,
|
|
300000000000000000100000100000000000000000000000,
|
|
200000000000000000200000200000000000000000000000,
|
|
100000100000100000000000100000000000100000000000,
|
|
100000100000100000000000100000000000000000000000,
|
|
300000000000200000000000300000000000000000000000,
|
|
300000000000100000000000200000000000000000000000,
|
|
700000000000000000000000000000000000000000000000,
|
|
000000000000000000000000000000000000800000000000,
|
|
|
|
#GOGOSTART
|
|
100000000000000000100000100000000000100000100000,
|
|
000000000000100000000000100000000000100000100000,
|
|
000000000000100000000000100000000000100000100000,
|
|
000000000000100000000000300000000300000000700000,
|
|
,
|
|
08,
|
|
9,
|
|
8,
|
|
|
|
#GOGOEND
|
|
200000000000000000000000000000000000000000000000,
|
|
200000000000000000000000000000000000000000000000,
|
|
400000000000000000000000000000000000000000000000,
|
|
200000000000000000000000000000000000000000000000,
|
|
#MEASURE 5/8
|
|
400000000000000000000000000000,
|
|
200000000000000000000000000000,
|
|
200000000000000000000000000000,
|
|
200000000000000000000000000000,
|
|
#MEASURE 4/4
|
|
200000000000000200000000000000000000000000000000,
|
|
200000000000000200000000000000000000000000000000,
|
|
100000000000000000000000100000000000100000000000,
|
|
500000000000000000000000000000000008000000000000,
|
|
100000000000000000000000100000000000000000000000,
|
|
100000000000000000100000100000000000000000000000,
|
|
300000000000100000000000200000000000100000000000,
|
|
100000000000200000200000200000000000100000000000,
|
|
100000000000100000001000100000000000100000000000,
|
|
500000000000000000000000000000000008000000000000,
|
|
|
|
#GOGOSTART
|
|
100000000000000000100000100000000000100000000000,
|
|
100000000000000000000000000000000000000000000000,
|
|
100000000000000000100000100000000000100000000000,
|
|
300000000300000000300000300000000000000000000000,
|
|
200000000000000000000000200000000000200000000000,
|
|
100000000000300000000000300000000000000000000000,
|
|
500000000000000000000000000000000008000000000500,
|
|
000000000000000000000000000008000000000000100000,
|
|
000100000000100000000100000000100000000100000000,
|
|
100000000000000000000000200000000000000000000900,
|
|
000000000000000000000000000000000000000000000008,
|
|
|
|
#GOGOEND
|
|
|
|
|
|
#END
|
|
|
|
|
|
COURSE:Easy
|
|
LEVEL:4
|
|
BALLOON:6,4,12,13,6,7
|
|
SCOREINIT:6970
|
|
SCOREDIFF:0
|
|
|
|
|
|
#START
|
|
|
|
|
|
#MEASURE 2/4
|
|
300000000000000000000000,
|
|
#MEASURE 4/4
|
|
100000000000000000000000000000000000000000000000,
|
|
100000000000000000000000100000000000000000000000,
|
|
100000000000000000000000000000000000000000000000,
|
|
100000000000000000000000100000000000000000000000,
|
|
300000000000000000000000300000000000000000000000,
|
|
300000000000000000000000300000000000000000000000,
|
|
9,
|
|
8,
|
|
100000000000000000000000200000000000000000000000,
|
|
100000000000000000000000000000000000000000000000,
|
|
100000000000000000000000200000000000000000000000,
|
|
100000000000000000000000000000000000000000000000,
|
|
100000000000000000000000200000000000000000000000,
|
|
300000000000300000000000300000000000000000000000,
|
|
500000000000000000000000000000000000000000000000,
|
|
000000000000000000000008000000000000000000000000,
|
|
100000000000000000000000200000000000000000000000,
|
|
100000000000000000000000000000000000000000000000,
|
|
100000000000000000000000200000000000000000000000,
|
|
100000000000000000000000000000000000000000000000,
|
|
100000000000000000000000200000000000000000000000,
|
|
300000000000300000000000300000000000000000000000,
|
|
500000000000000000000000000000000000000000000000,
|
|
000000000000000000000008000000000000000000000000,
|
|
300000000000000000100000000000000000100000000000,
|
|
000000100000000000000000100000000000000000000000,
|
|
000000400000000000000000200000000000000000000000,
|
|
100000000000000000100000000000000000000000000000,
|
|
100000000000000000000000100000000000000000000000,
|
|
100000000000000000000000200000000000000000000000,
|
|
100000000000000000000000100000000000000000000000,
|
|
700000000000000000000000000000000000800000000000,
|
|
|
|
#GOGOSTART
|
|
100000000000000000000000100000000000100000000000,
|
|
100000000000000000000000000000000000000000000000,
|
|
100000000000000000000000100000000000100000000000,
|
|
100000000000000000000000100000000000000000000000,
|
|
200000000000000000000000200000000000000000000000,
|
|
100000000000300000000000300000000000000000000000,
|
|
500000000000000000000000000000000000000000000000,
|
|
000000000008000000000000000000000000000000000000,
|
|
|
|
#GOGOEND
|
|
100000000000000000000000100000000000000000000000,
|
|
100000000000100000000000100000000000000000000000,
|
|
100000000000000000000000100000000000000000000000,
|
|
100000000000100000000000100000000000000000000000,
|
|
200000000000000000000000200000000000000000000000,
|
|
100000000000100000000000100000000000000000000000,
|
|
200000000000000000000000200000000000000000000000,
|
|
100000000000100000000000100000000000000000000000,
|
|
300000000000000000000000100000000000000000000000,
|
|
200000000000000000000000200000000000000000000000,
|
|
100000000000100000000000100000000000100000000000,
|
|
100000000000100000000000100000000000000000000000,
|
|
300000000000000000000000300000000000000000000000,
|
|
300000000000000000000000000000000000000000000000,
|
|
700000000000000000000000000000000000000000000000,
|
|
000000000000000000000000000000000000800000000000,
|
|
|
|
#GOGOSTART
|
|
100000000000000000000000100000000000000000100000,
|
|
000000000000000000000000100000000000000000100000,
|
|
000000000000000000000000100000000000000000100000,
|
|
000000000000000000000000300000000000000000700000,
|
|
,
|
|
08,
|
|
9,
|
|
8,
|
|
|
|
#GOGOEND
|
|
200000000000000000000000000000000000000000000000,
|
|
000000000000000000000000000000000000000000000000,
|
|
400000000000000000000000000000000000000000000000,
|
|
000000000000000000000000000000000000000000000000,
|
|
#MEASURE 5/8
|
|
400000000000000000000000000000,
|
|
000000000000000000000000000000,
|
|
200000000000000000000000000000,
|
|
000000000000000000000000000000,
|
|
#MEASURE 4/4
|
|
200000000000000000000000000000000000000000000000,
|
|
200000000000000000000000000000000000000000000000,
|
|
100000000000000000000000100000000000000000000000,
|
|
500000000000000000000000000008000000000000000000,
|
|
100000000000000000000000100000000000000000000000,
|
|
100000000000000000000000000000000000000000000000,
|
|
300000000000000000000000100000000000100000000000,
|
|
100000000000000000000000100000000000100000000000,
|
|
100000000000100000000000100000000000000000000000,
|
|
500000000000000000000000000008000000000000000000,
|
|
|
|
#GOGOSTART
|
|
100000000000000000000000100000000000100000000000,
|
|
100000000000000000000000000000000000000000000000,
|
|
100000000000000000000000100000000000100000000000,
|
|
300000000000000000000000300000000000000000000000,
|
|
200000000000000000000000200000000000000000000000,
|
|
100000000000300000000000300000000000000000000000,
|
|
500000000000000000000000000008000000000000000500,
|
|
000000000000000000000000008000000000000000100000,
|
|
000000000000100000000000000000100000000000000000,
|
|
200000000000000000000000000000000000000000000900,
|
|
000000000000000000000000000000000000000000000008,
|
|
|
|
#GOGOEND
|
|
|
|
|
|
#END
|
|
|