Files
TJA-by-song-no/tja/1064.tja
2026-03-04 23:59:27 +09:00

313 lines
11 KiB
Plaintext
Raw Blame History

This file contains ambiguous Unicode characters
This file contains Unicode characters that might be confused with other characters. If you think that this is intentional, you can safely ignore this warning. Use the Escape button to reveal them.
//TJADB Project
TITLE:Fun! Fun! Fun! Yume∞
TITLEJA:Fun!Fun!Fun! ~夢∞~
SUBTITLE:--Lucky²/Bittomo × Heroine Kirameki Powers!
BPM:164.816
WAVE:Fun! Fun! Fun! Yume.ogg
OFFSET:-2.004
DEMOSTART:44.930
COURSE:Oni
LEVEL:6
BALLOON:25,16,12
SCOREINIT:3340
SCOREDIFF:0
#START
300000000000000000300000000000000000300000000000,
000000300000000000000000400000000000400000000000,
300000000000000000300000000000000000300000000000,
000000300000000000000000400000000000400000000000,
200000100000100000200000100000100100100000200000,
100000000000200000000000100000100100100000000000,
200000100000100000200000100000100100100000200000,
100000000000100000000000100000200200200000000000,
500000000000000000000000000000000000000000000008,
000000100000100000200000100000100100100000000000,
300000000000000000300000000000000000300000000000,
000000300000000000000000400000000000400000000000,
200000100000100000200000100000100100100000200000,
100000000000200000000000100000100100100000000000,
200000100000100000200000100000100100100000200000,
100000000000100000000000100000200200200000000000,
500000000000000000000000000000000000000000000008,
000000100000100000200000100000100100100000000000,
300000000000000000300000000000000000300000000000,
000000300000000000000000400000000000400000000000,
200000000000100000100000200000100000200000100000,
100000000100100000100000200000000000200000200000,
700000000000000000000000000000000000000000000000,
000000000000000000000000000000800000000000000000,
200000000000100000200000200000000000200000200000,
100000000100100000200000200000000000200000200000,
500000000000000000000000000000000000000000000008,
000000000000000000100000100000100100100000100000,
700000000000000000000000000000000000000000000000,
800000000000000000000000300000000000400000000000,
#GOGOSTART
300000000000300000000000300000000000200000200000,
100000100000200000100000200000000000400000000000,
300000000000300000000000300000000000200000200000,
100000100000200000100000200000000000400000000000,
100000200200200000100100100000200200200000100000,
100000100000200000100000200000100100100000100000,
100000000000100000200200200000000000200000700000,
00000800,
300000000000300000000000300000000000200000200000,
100000100000200000100000200000000000400000000000,
300000000000300000000000300000000000200000200000,
100000100000200000100000200000000000400000000000,
100000200200200000100100100000200200200000100000,
100000200200200000200000100000100100100000000000,
100000000000100000100100100000100000200000100000,
100000200200200000100000100000200200200000000000,
100000000000200000100100100000100000100000200000,
100000000000200000100100100000100000200000100000,
100000000000200000100100100000100000100000200000,
100000100100100000200200200000000000100000000000,
300000300000000000300000000000300000000000300000,
000000300000000000100000100000200200200000000000,
#GOGOEND
300000000000000000300000000000000000300000000000,
000000300000000000000000400000000000400000000000,
300000000000000000300000000000000000300000000000,
000000300000000000000000400000000000400000000000,
300000000000000000000000000000000000000000000000,
#END
COURSE:Hard
LEVEL:5
BALLOON:20,13,10
SCOREINIT:4970
SCOREDIFF:0
#START
300000000000000000300000000000000000300000000000,
000000300000000000000000400000000000400000000000,
300000000000000000300000000000000000300000000000,
000000300000000000000000400000000000400000000000,
100000000000100000000000100000100000100000000000,
100000000000200000000000100000100000200000000000,
100000000000100000000000100000100000100000000000,
100000000000100000000000100000000000200000000000,
500000000000000000000000000000000000000000000008,
000000100000100000000000100000100000200000000000,
300000000000000000300000000000000000300000000000,
000000300000000000000000400000000000400000000000,
100000000000100000000000100000100000100000000000,
100000000000200000000000100000100000200000000000,
100000000000100000000000100000100000100000000000,
100000000000100000000000100000000000200000000000,
500000000000000000000000000000000000000000000008,
000000100000100000000000100000100000200000000000,
300000000000000000300000000000000000300000000000,
000000300000000000000000400000000000400000000000,
200000000000000000000000200000000000200000000000,
200000000000000000000000200000000000200000000000,
7,
00000800,
200000000000000000200000200000000000200000000000,
200000000000200000200000200000000000200000000000,
500000000000000000000000000000000000000000000008,
000000000000000000000000100000000000100000100000,
9,
8,
#GOGOSTART
300000000000300000000000300000000000200000000000,
100000100000200000100000200000000000400000000000,
300000000000300000000000300000000000200000000000,
100000100000200000100000200000000000400000000000,
100000100000200000000000100000100000200000500000,
000000000000000000000000000000000008000000000000,
100000000000100000100000200000000000200000700000,
00000800,
300000000000300000000000300000000000200000000000,
100000100000200000100000200000000000400000000000,
300000000000300000000000300000000000200000000000,
100000100000200000100000200000000000400000000000,
100000100000200000000000100000100000200000500000,
000000000000000000000000000000000000000008000000,
100000000000100000100000200000000000200000000000,
100000000000100000000000100000100000100000000000,
100000000000200000100000100000000000200000000000,
100000000000100000100000200000000000200000000000,
100000000000200000100000100000000000200000000000,
100000000000100000100000200000000000200000000000,
300000300000000000300000000000300000000000300000,
000000300000000000100000100000000000200000000000,
#GOGOEND
300000000000000000300000000000000000300000000000,
000000300000000000000000400000000000400000000000,
300000000000000000300000000000000000300000000000,
000000300000000000000000400000000000400000000000,
300000000000000000000000000000000000000000000000,
#END
COURSE:Normal
LEVEL:3
BALLOON:14,9,7
SCOREINIT:8120
SCOREDIFF:0
#START
300000000000000000300000000000000000300000000000,
000000300000000000000000400000000000400000000000,
300000000000000000300000000000000000300000000000,
000000300000000000000000400000000000400000000000,
100000000000000000000000100000000000000000000000,
100000000000100000000000100000000000000000000000,
100000000000000000000000100000000000000000000000,
100000000000100000000000100000000000000000000000,
500000000000000000000000000000000000000000000008,
000000000000000000000000100000000000100000000000,
300000000000000000300000000000000000300000000000,
000000300000000000000000400000000000400000000000,
100000000000000000000000100000000000000000000000,
100000000000100000000000100000000000000000000000,
100000000000000000000000100000000000000000000000,
100000000000100000000000100000000000000000000000,
500000000000000000000000000000000000000000000008,
000000000000000000000000100000000000100000000000,
300000000000000000300000000000000000300000000000,
000000300000000000000000400000000000400000000000,
200000000000000000000000200000000000000000000000,
200000000000000000000000200000000000200000000000,
7,
00000800,
200000000000000000000000200000000000000000000000,
200000000000000000000000200000000000200000000000,
500000000000000000000000000000000000000000000008,
000000000000000000000000100000000000100000000000,
9,
8,
#GOGOSTART
300000000000300000000000300000000000000000000000,
100000000000000000000000100000000000400000000000,
300000000000300000000000300000000000000000000000,
100000000000000000000000100000000000400000000000,
100000000000100000000000100000000000100000500000,
000000000000000000000000000000000008000000000000,
100000000000000000000000200000000000000000700000,
00000800,
300000000000300000000000300000000000000000000000,
100000000000000000000000100000000000400000000000,
300000000000300000000000300000000000000000000000,
100000000000000000000000100000000000400000000000,
100000000000100000000000100000000000100000500000,
000000000000000000000000000000000008000000000000,
100000000000000000000000100000000000000000000000,
100000000000100000000000100000000000100000000000,
200000000000000000000000200000000000000000000000,
200000000000000000000000000000000000000000000000,
200000000000200000000000000000000000000000000000,
200000000000200000000000000000000000000000000000,
300000000000000000300000000000000000000000600000,
000000000000000000000000000000000008000000000000,
#GOGOEND
300000000000000000300000000000000000300000000000,
000000300000000000000000400000000000400000000000,
300000000000000000300000000000000000300000000000,
000000300000000000000000400000000000400000000000,
300000000000000000000000000000000000000000000000,
#END
COURSE:Easy
LEVEL:2
BALLOON:10,7,5
SCOREINIT:14010
SCOREDIFF:0
#START
300000000000000000000000000000000000300000000000,
000000000000000000000000300000000000000000000000,
300000000000000000000000000000000000300000000000,
000000000000000000000000300000000000000000000000,
100000000000000000000000000000000000000000000000,
100000000000000000000000000000000000000000000000,
100000000000000000000000000000000000000000000000,
100000000000000000000000100000000000000000000000,
100000000000000000000000000000000000000000000000,
100000000000000000000000100000000000000000000000,
300000000000000000000000000000000000300000000000,
000000000000000000000000300000000000000000000000,
100000000000000000000000000000000000000000000000,
100000000000000000000000000000000000000000000000,
100000000000000000000000000000000000000000000000,
100000000000000000000000100000000000000000000000,
100000000000000000000000000000000000000000000000,
100000000000000000000000100000000000000000000000,
300000000000000000000000000000000000300000000000,
000000000000000000000000300000000000000000000000,
200000000000000000000000000000000000000000000000,
200000000000000000000000200000000000000000000000,
7,
00000800,
200000000000000000000000000000000000000000000000,
200000000000000000000000200000000000000000000000,
500000000000000000000000000000000000000000000008,
000000000000000000000000000000000000000000000000,
9,
8,
#GOGOSTART
300000000000300000000000300000000000000000000000,
100000000000000000000000000000000000000000000000,
300000000000300000000000300000000000000000000000,
100000000000000000000000000000000000000000000000,
100000000000000000000000100000000000000000000000,
100000000000000000000000100000000000000000000000,
100000000000000000000000000000000000000000700000,
00000800,
300000000000300000000000300000000000000000000000,
100000000000000000000000000000000000000000000000,
300000000000300000000000300000000000000000000000,
100000000000000000000000000000000000000000000000,
100000000000000000000000100000000000000000500000,
000000000000000000000000000008000000000000000000,
100000000000000000000000000000000000000000000000,
100000000000000000000000100000000000000000000000,
100000000000000000000000000000000000000000000000,
200000000000000000000000000000000000000000000000,
200000000000000000000000000000000000000000000000,
200000000000000000000000000000000000000000000000,
600000000000000000000000000000000000000000000000,
000000000000000000000000000008000000000000000000,
#GOGOEND
300000000000000000000000000000000000300000000000,
000000000000000000000000300000000000000000000000,
300000000000000000000000000000000000300000000000,
000000000000000000000000300000000000000000000000,
300000000000000000000000000000000000000000000000,
#END