698 lines
7.0 KiB
Plaintext
698 lines
7.0 KiB
Plaintext
//TJADB Project
|
|
TITLE:Animal
|
|
TITLEJA:アニマル
|
|
SUBTITLE:--DECO*27 feat. Hatsune Miku
|
|
SUBTITLEJA:DECO*27 feat. 初音ミク
|
|
BPM:188
|
|
WAVE:Animal.ogg
|
|
OFFSET:-0.936
|
|
DEMOSTART:41.301
|
|
|
|
COURSE:Oni
|
|
LEVEL:7
|
|
SCOREINIT:1220
|
|
SCOREDIFF:0
|
|
|
|
|
|
#START
|
|
|
|
|
|
#SCROLL 0.6
|
|
20202202,
|
|
02222022,
|
|
02202022,
|
|
02022000,
|
|
#SCROLL 1
|
|
12211201,
|
|
12212121,
|
|
1010101010111030,
|
|
0030003030221000,
|
|
11221121,
|
|
0011200010102010,
|
|
0022101010102010,
|
|
0010222011102220,
|
|
11221121,
|
|
0011200010102010,
|
|
0022101010102010,
|
|
0030003030000011,
|
|
10211021,
|
|
01211020,
|
|
10211021,
|
|
0010201010000011,
|
|
10211021,
|
|
01211020,
|
|
10211021,
|
|
0010201010002220,
|
|
11210122,
|
|
11220121,
|
|
10221121,
|
|
0010201010002220,
|
|
11210121,
|
|
11220111,
|
|
20022222,
|
|
0000000000202220,
|
|
|
|
#GOGOSTART
|
|
1010201010200011,
|
|
11211121,
|
|
0011101011101030,
|
|
0030003030202220,
|
|
1010201010200011,
|
|
11211121,
|
|
0011101011101030,
|
|
0030003030221020,
|
|
|
|
#GOGOEND
|
|
2000
|
|
|
|
#GOGOSTART
|
|
300022102030,
|
|
0030003000202220,
|
|
11211121,
|
|
3000300030202220,
|
|
1010201010200011,
|
|
11211121,
|
|
0011101011101030,
|
|
03033000,
|
|
|
|
#GOGOEND
|
|
1001001010010010,
|
|
1001001010003030,
|
|
0010001011103030,
|
|
0010001011103030,
|
|
0010001011101040,
|
|
04040442,
|
|
0020001011103030,
|
|
0010001011103030,
|
|
0010001011101040,
|
|
04040404,
|
|
04040402,
|
|
0000000011102220,
|
|
11210122,
|
|
11220121,
|
|
10221121,
|
|
0010201010002220,
|
|
11210121,
|
|
11220111,
|
|
20022222,
|
|
00022222,
|
|
1022201020002020,
|
|
01112121,
|
|
1022201020002020,
|
|
0010100020221011,
|
|
1022201020002020,
|
|
01122101,
|
|
1022201020002020,
|
|
0010202000112020,
|
|
#BARLINEOFF
|
|
#SCROLL 0.6
|
|
00000220,
|
|
#BARLINEON
|
|
20202202,
|
|
02222022,
|
|
02202022,
|
|
02022220,
|
|
#SCROLL 1
|
|
12211201,
|
|
12212121,
|
|
1010101010111030,
|
|
0030003030202220,
|
|
|
|
#GOGOSTART
|
|
3020203020201110,
|
|
01211121,
|
|
0011101011101030,
|
|
0030003030202220,
|
|
1010201010200011,
|
|
11211121,
|
|
0011101011101030,
|
|
0030003030221020,
|
|
|
|
#GOGOEND
|
|
2000
|
|
|
|
#GOGOSTART
|
|
300022102030,
|
|
0030003000202220,
|
|
11211121,
|
|
3000300030202220,
|
|
1010201010200011,
|
|
11211121,
|
|
0011101011101030,
|
|
03033000,
|
|
|
|
#GOGOEND
|
|
1020111010201010,
|
|
|
|
#GOGOSTART
|
|
0020222000202220,
|
|
|
|
#GOGOEND
|
|
1020111010201010,
|
|
|
|
#GOGOSTART
|
|
0020222000202220,
|
|
|
|
#GOGOEND
|
|
1020111010201010,
|
|
|
|
#GOGOSTART
|
|
0020222000202220,
|
|
|
|
#GOGOEND
|
|
1020111010201010,
|
|
01111222,
|
|
20
|
|
|
|
#GOGOSTART
|
|
301211,
|
|
1020222010202220,
|
|
1020111010201010,
|
|
1020222010202220,
|
|
1020112010201120,
|
|
1020222010202220,
|
|
1020112010201120,
|
|
0020002030000000,
|
|
|
|
#GOGOEND
|
|
|
|
|
|
#END
|
|
|
|
|
|
COURSE:Hard
|
|
LEVEL:4
|
|
SCOREINIT:1850
|
|
SCOREDIFF:0
|
|
|
|
|
|
#START
|
|
|
|
|
|
#SCROLL 0.6
|
|
20202002,
|
|
0222,
|
|
00202002,
|
|
02002000,
|
|
#SCROLL 1
|
|
10101001,
|
|
01101010,
|
|
01111013,
|
|
03033040,
|
|
10101121,
|
|
00101121,
|
|
01101121,
|
|
01101121,
|
|
01101121,
|
|
00101121,
|
|
01101121,
|
|
03033000,
|
|
10211011,
|
|
01211010,
|
|
10211011,
|
|
01011000,
|
|
10211011,
|
|
01211010,
|
|
10211011,
|
|
01011020,
|
|
11210110,
|
|
11210110,
|
|
10211011,
|
|
01011020,
|
|
11210110,
|
|
11210110,
|
|
20022222,
|
|
,
|
|
|
|
#GOGOSTART
|
|
11211201,
|
|
01101121,
|
|
01111013,
|
|
03033000,
|
|
11211201,
|
|
01101121,
|
|
01111013,
|
|
03033020,
|
|
|
|
#GOGOEND
|
|
20
|
|
|
|
#GOGOSTART
|
|
302103,
|
|
03030000,
|
|
11210110,
|
|
3330,
|
|
11211201,
|
|
01101121,
|
|
01111013,
|
|
03033000,
|
|
|
|
#GOGOEND
|
|
6,
|
|
000000000000000000000008000000000000300000300000,
|
|
01011033,
|
|
01011033,
|
|
01011014,
|
|
04040441,
|
|
01011033,
|
|
01011033,
|
|
01011014,
|
|
04040404,
|
|
04040402,
|
|
000000000000000000000000500000000000000008000000,
|
|
11210110,
|
|
11210110,
|
|
10211011,
|
|
01011020,
|
|
11210110,
|
|
11210110,
|
|
20022222,
|
|
,
|
|
10012000,
|
|
01102100,
|
|
10012000,
|
|
01102010,
|
|
10012000,
|
|
01102100,
|
|
10012000,
|
|
600000000000000000000000000000000000000000000008,
|
|
#BARLINEOFF
|
|
#SCROLL 0.6
|
|
,
|
|
#BARLINEON
|
|
20202002,
|
|
0222,
|
|
00202002,
|
|
02002000,
|
|
#SCROLL 1
|
|
10101001,
|
|
01101010,
|
|
01111013,
|
|
03033040,
|
|
|
|
#GOGOSTART
|
|
30230203,
|
|
01101121,
|
|
01111013,
|
|
03033000,
|
|
11211201,
|
|
01101121,
|
|
01111013,
|
|
03033020,
|
|
|
|
#GOGOEND
|
|
20
|
|
|
|
#GOGOSTART
|
|
302103,
|
|
03030000,
|
|
11210110,
|
|
3330,
|
|
11211201,
|
|
01101121,
|
|
01111013,
|
|
03033000,
|
|
|
|
#GOGOEND
|
|
10101011,
|
|
|
|
#GOGOSTART
|
|
02220222,
|
|
|
|
#GOGOEND
|
|
10101011,
|
|
|
|
#GOGOSTART
|
|
02220222,
|
|
|
|
#GOGOEND
|
|
10101011,
|
|
|
|
#GOGOSTART
|
|
02220222,
|
|
|
|
#GOGOEND
|
|
10101011,
|
|
000000500000000000000000000000000000000008000000,
|
|
20
|
|
|
|
#GOGOSTART
|
|
301011,
|
|
02220222,
|
|
10101011,
|
|
02220222,
|
|
10121211,
|
|
02220222,
|
|
10121211,
|
|
03,
|
|
|
|
#GOGOEND
|
|
|
|
|
|
#END
|
|
|
|
|
|
COURSE:Normal
|
|
LEVEL:4
|
|
BALLOON:5,5
|
|
SCOREINIT:3780
|
|
SCOREDIFF:0
|
|
|
|
|
|
#START
|
|
|
|
|
|
#SCROLL 0.6
|
|
22,
|
|
02,
|
|
02,
|
|
02,
|
|
#SCROLL 1
|
|
10000001,
|
|
0011,
|
|
6,
|
|
000000000000000000000008000000000000400000000000,
|
|
1011,
|
|
0111,
|
|
0111,
|
|
0111,
|
|
1011,
|
|
0111,
|
|
0111,
|
|
01001000,
|
|
10001001,
|
|
01,
|
|
10001001,
|
|
01,
|
|
10001001,
|
|
01,
|
|
10001001,
|
|
01,
|
|
1102,
|
|
1102,
|
|
10001001,
|
|
01,
|
|
1102,
|
|
1102,
|
|
20000002,
|
|
,
|
|
|
|
#GOGOSTART
|
|
10101001,
|
|
0111,
|
|
00101001,
|
|
01001000,
|
|
10101001,
|
|
0111,
|
|
00101001,
|
|
01001000,
|
|
|
|
#GOGOEND
|
|
00
|
|
|
|
#GOGOSTART
|
|
301007,
|
|
00000800,
|
|
2220,
|
|
3330,
|
|
10101001,
|
|
0111,
|
|
00101001,
|
|
01001000,
|
|
|
|
#GOGOEND
|
|
6,
|
|
000000000000000000000008000000000000300000300000,
|
|
00000033,
|
|
00000033,
|
|
00000006,
|
|
000000000000000000000000000008000000300000300000,
|
|
00000033,
|
|
00000033,
|
|
00000006,
|
|
,
|
|
000000000000000000000000000000000008000000200000,
|
|
,
|
|
1102,
|
|
1102,
|
|
10001001,
|
|
01,
|
|
1102,
|
|
1102,
|
|
20000002,
|
|
,
|
|
12,
|
|
01001000,
|
|
12,
|
|
01001010,
|
|
12,
|
|
01001000,
|
|
12,
|
|
600000000000000000000000000000000000000000000008,
|
|
#BARLINEOFF
|
|
#SCROLL 0.6
|
|
,
|
|
#BARLINEON
|
|
22,
|
|
02,
|
|
02,
|
|
02,
|
|
#SCROLL 1
|
|
10001001,
|
|
0011,
|
|
6,
|
|
000000000000000000000008000000000000000000000000,
|
|
|
|
#GOGOSTART
|
|
30030003,
|
|
0111,
|
|
00101001,
|
|
01001000,
|
|
10101001,
|
|
0111,
|
|
00101001,
|
|
01001000,
|
|
|
|
#GOGOEND
|
|
00
|
|
|
|
#GOGOSTART
|
|
301007,
|
|
00000800,
|
|
2220,
|
|
3330,
|
|
10101001,
|
|
0111,
|
|
00101001,
|
|
01001000,
|
|
|
|
#GOGOEND
|
|
10101011,
|
|
|
|
#GOGOSTART
|
|
0202,
|
|
|
|
#GOGOEND
|
|
10101011,
|
|
|
|
#GOGOSTART
|
|
0202,
|
|
|
|
#GOGOEND
|
|
10101011,
|
|
|
|
#GOGOSTART
|
|
0202,
|
|
|
|
#GOGOEND
|
|
10101011,
|
|
000000500000000000000000000000000000000008000000,
|
|
00
|
|
|
|
#GOGOSTART
|
|
301011,
|
|
0202,
|
|
10101011,
|
|
0202,
|
|
10101011,
|
|
0202,
|
|
10101011,
|
|
03,
|
|
#GOGOEND
|
|
|
|
|
|
#END
|
|
|
|
|
|
COURSE:Easy
|
|
LEVEL:3
|
|
BALLOON:4,4
|
|
SCOREINIT:6490
|
|
SCOREDIFF:0
|
|
|
|
|
|
#START
|
|
|
|
|
|
#SCROLL 0.6
|
|
,
|
|
,
|
|
,
|
|
,
|
|
#SCROLL 1
|
|
10000001,
|
|
,
|
|
6,
|
|
000000000000000000000008000000000000000000000000,
|
|
11,
|
|
0111,
|
|
0111,
|
|
0110,
|
|
11,
|
|
0111,
|
|
0111,
|
|
01,
|
|
10000001,
|
|
,
|
|
11,
|
|
01,
|
|
10000001,
|
|
,
|
|
11,
|
|
01,
|
|
1100,
|
|
1100,
|
|
11,
|
|
02,
|
|
1100,
|
|
1100,
|
|
2,
|
|
,
|
|
|
|
#GOGOSTART
|
|
10000001,
|
|
0011,
|
|
00000001,
|
|
01,
|
|
10000001,
|
|
0011,
|
|
00000001,
|
|
01,
|
|
|
|
#GOGOEND
|
|
00
|
|
|
|
#GOGOSTART
|
|
300007,
|
|
00000800,
|
|
1110,
|
|
3330,
|
|
10000001,
|
|
0011,
|
|
00000001,
|
|
01,
|
|
|
|
#GOGOEND
|
|
6,
|
|
000000000000000000000008000000000000000000300000,
|
|
|
|
00000003,
|
|
00000003,
|
|
00000004,
|
|
00000003,
|
|
00000003,
|
|
00000003,
|
|
00000006,
|
|
,
|
|
000000000000000000000000000000000000000000000008,
|
|
,
|
|
1100,
|
|
1100,
|
|
11,
|
|
02,
|
|
1100,
|
|
1100,
|
|
2,
|
|
,
|
|
11,
|
|
01,
|
|
11,
|
|
02,
|
|
11,
|
|
01,
|
|
11,
|
|
600000000000000000000000000000000000000000000008,
|
|
#BARLINEOFF
|
|
#SCROLL 0.6
|
|
,
|
|
#BARLINEON
|
|
22,
|
|
02,
|
|
02,
|
|
,
|
|
#SCROLL 1
|
|
10000001,
|
|
,
|
|
6,
|
|
000000000000000000000008000000000000000000000000,
|
|
|
|
#GOGOSTART
|
|
30000003,
|
|
0011,
|
|
00000001,
|
|
01,
|
|
10000001,
|
|
0011,
|
|
00000001,
|
|
01,
|
|
|
|
#GOGOEND
|
|
00
|
|
|
|
#GOGOSTART
|
|
300007,
|
|
00000800,
|
|
1110,
|
|
3330,
|
|
10000001,
|
|
0011,
|
|
00000001,
|
|
01,
|
|
|
|
#GOGOEND
|
|
1011,
|
|
|
|
#GOGOSTART
|
|
,
|
|
|
|
#GOGOEND
|
|
1011,
|
|
|
|
#GOGOSTART
|
|
,
|
|
|
|
#GOGOEND
|
|
1011,
|
|
|
|
#GOGOSTART
|
|
,
|
|
|
|
#GOGOEND
|
|
2022,
|
|
,
|
|
0
|
|
|
|
#GOGOSTART
|
|
301,
|
|
,
|
|
1011,
|
|
,
|
|
1011,
|
|
,
|
|
2022,
|
|
03,
|
|
|
|
#GOGOEND
|
|
|
|
|
|
#END |