Files
TJA-by-song-no/tja/118.tja
2026-03-04 23:59:27 +09:00

505 lines
5.4 KiB
Plaintext

//TJADB Project
TITLE:Sachi Sachi ni Shite Ageru♪
TITLEJA:さちさちにしてあげる♪
SUBTITLE:--Sachiko Kobayashi
SUBTITLEJA:小林幸子
BPM:160
WAVE:Sachi Sachi ni Shite Ageru.ogg
OFFSET:-2.454
DEMOSTART:74.438
//shinuchi: 8370/4710/2990/2240/1300
COURSE:Edit
LEVEL:10
BALLOON:60
SCOREINIT:470,1340
SCOREDIFF:115
#START
#GOGOSTART
1020102101201020,
1122101111222022,
1020102101201020,
1112201110300022,
1020102101201020,
1122101111222022,
1020102101201020,
100100100200200000100100100000101010101010101010, //8
#GOGOEND
1022120210222012,
2012120210202020,
1022120210222012,
2012201212122212,
1022120210222012,
2012120210202212,
2012201110222010,
200200100000200200100000202020202020202020202020, //16
10211020,
11022220,
10211020,
1010002020202022,
1011102010221022,
1011102010221022,
1010101011101212,
100100200100100200100100200000101010101010101010, //24
#GOGOSTART
1021112102121212,
2012101210111011,
1211212010221020,
2022121011202222,
1021112102121212,
2012101210111011,
1211212010221020,
100100100100200200200200100100100100202020202020, //32
#GOGOEND
1020102101201020,
1122101111222022,
1020102101201020,
1112201110300022,
1020102101201020,
1122101111222022,
1020102101201020,
100100100200200000100100100000400000202020202020, //40
#GOGOSTART
1021112102121212,
2012201212121212,
1022101220122012,
2012201210404040,
1021112102121212,
1012121220121212,
1012221010221020,
100100100100200200100100100100200200101010101010, //48
1022101222121212,
2012201212121212,
1022101220122022,
1021201210404040,
1022101222121211,
1012121220121212,
1012221010221020,
100100100100200200100100200200101010202020101010, //56
7,
0,
0,
0008,
1222121222122212,
2212221212121212,
1222121222122212,
200200100200200200100000300000300000101010101010, //64
#GOGOEND
0,
0,
0, //67
#END
COURSE:Oni
LEVEL:7
BALLOON:38,38,60
SCOREINIT:700,2680
SCOREDIFF:175
#START
#GOGOSTART
1020102100200020,
1020002010222020,
1020102100200020,
1022201000100022,
1020102100200020,
1020002010222020,
1020102100200020,
1022201000404000,//8
#GOGOEND
1020102000200022,
12120222,
12120202,
1020102000222020,
1020102000200022,
12120222,
02121215,
000000000000000000000000000000000008000000000000, //16
10211020,
11020220,
10211020,
1010002000202022,
1010002000200022,
1010002000200022,
1110101011101010,
4, //24
#GOGOSTART
30330333,
03333220,
1011202010222020,
1011202010404040,
30330333,
03333444,
1110202010202220,
1110202011102020, //32
#GOGOEND
7,
0,
8,
0,
7,
0,
8,
0, //40
#GOGOSTART
10210211,
02121220,
1011202010222011,
2020222010404040,
10210212,
12121444,
1110202010222020,
1110202011102020, //48
5,
000000000000000000000000000000000008000000000000,
1011202010222020,
1011202010404040,
30330333,
03333444,
1110202010222020,
1110202211222010, //56
7,
0,
0,
0008,
1020102100200020,
1020002010222020,
1020102100200020,
1022202030300030, //64
#GOGOEND
0,
0,
0, //67
#END
COURSE:Hard
LEVEL:7
BALLOON:44,44,25
SCOREINIT:770,3320
SCOREDIFF:210
#START
#GOGOSTART
30220202,
02021212,
500000000000000000000000000000000008000000000000,
1010001000222000,
10220202,
02021212,
500000000000000000000000000000000008000000000000,
1010001000222000, //8
#GOGOEND
01120212,
02120222,
01120212,
0020102000222020,
01120212,
02120222,
01120211,
00000220, //16
10022020,
11022020,
10022020,
11022020,
11020202,
11020202,
10015000,
000000000008000000000000000000000000000000000000, //24
#GOGOSTART
30110111,
01111220,
1000101000222020,
11010222,
30110111,
01111222,
1010001000222020,
11010222, //32
#GOGOEND
7,
0,
0,
0008,
7,
0,
0,
0008, //40
#GOGOSTART
1000111000111010,
0011101010202000,
1000111000222011,
11011222,
1000111000111011,
1011101010202000,
1110001110002020,
2210002000221010, //48
5,
000000000000000000000008000000000000000000000000,
1000111000222020,
1110001110222020,
30330333,
03333444,
1110001110002020,
2210002222222020, //56
9,
09,
8,
0,
3000222000222020,
1020002210201020,
500000000000000000000000000000000008000000000000,
12023303, //64
#GOGOEND
0,
0,
0, //67
#END
COURSE:Normal
LEVEL:6
BALLOON:8,15,15,15
SCOREINIT:920,5220
SCOREDIFF:295
#START
#GOGOSTART
3,
11,
500000000000000000000000000000000008000000000000,
10020200,
1,
11,
500000000000000000000000000000000008000000000000,
10020200, //8
#GOGOEND
01110101,
01010222,
01110102,
02020100,
01110101,
01010222,
01010101,
0, //16
10022000,
00022000,
10022000,
00022000,
11020200,
11020200,
7,
8, //24
#GOGOSTART
10110111,
01111000,
10110220,
11010220,
10110111,
01111000,
11010022,
22010110, //32
#GOGOEND
9,
09,
8,
0,
9,
09,
8,
0, //40
#GOGOSTART
10110111,
02222000,
10110201,
01012020,
10110101,
11111000,
11010022,
22010110, //48
5,
000000000000000000000008000000000000000000000000,
10110220,
22010110,
30330333,
03333000,
11010022,
22012020, //56
9,
09,
8,
0,
10220202,
02222000,
10220202,
02203303, //64
#GOGOEND
0,
0,
0, //67
#END
COURSE:Easy
LEVEL:3
BALLOON:6,12,12,12
SCOREINIT:850,10560
SCOREDIFF:508
#START
#GOGOSTART
3,
11,
500000000000000000000000000000000008000000000000,
0,
1,
11,
500000000000000000000000000000000008000000000000,
0, //8
#GOGOEND
11,
1100,
11,
2200,
11,
1100,
11,
1, //16
02,
02,
02,
02,
11,
11,
7,
8, //24
#GOGOSTART
11,
3330,
11,
500000000000000000000000000008000000000000000000,
11,
3330,
0220,
1111, //32
#GOGOEND
9,
09,
8,
0,
9,
09,
8,
0, //40
#GOGOSTART
11,
2220,
11,
500000000000000000000000000008000000000000000000,
11,
2220,
0220,
1111, //48
33,
3330,
11,
500000000000000000000000000008000000000000000000,
33,
3330,
0220,
1111, //56
9,
09,
8,
0,
11,
1110,
11,
3333, //64
#GOGOEND
0,
0,
0, //67
#END