Files
TJA-by-song-no/tja/1216.tja
2026-03-04 23:59:27 +09:00

1146 lines
15 KiB
Plaintext

//TJADB Project
TITLE:CUT! into the FUTURE
TITLEJA:CUT! into the FUTURE
SUBTITLE:--Morimori Atsushi
SUBTITLEJA:モリモリあつし
BPM:236
WAVE:CUT! into the FUTURE.ogg
OFFSET:-1.743
DEMOSTART:72.924
//SONG_ID:mmacut
//Shinuchi: 3560/2210/1420/920/680
COURSE:Edit
LEVEL:10
BALLOON:5,14
SCOREINIT:260,750
SCOREDIFF:55
#START
10210201,
02010201,
#BPMCHANGE 236.88
1000201000202222,
#BPMCHANGE 236
1010003000112000,
500000000000000000000000000008000000200000000000,
30330301,
400000000400000000400000000400000000100000001000,
400000000400000000400000000400000000100010001000,
400000000400000000400000000400000000100000001000,
2002001120020011,
100200200100200200100200200100200200100000001000,
100200200100200200100200200100200200100010001000,
200000101010100000200000100100100000200000200000,
0011201020101010, //14
#SCROLL 1.5
500000000000000008000000
#SCROLL 1
100000200000100000200200,
1022102210221210,
1022102012221202,
1022111110003000,
102020100000400000000000100000200200100000200200,
1022102210221111,
1022122012121211,
2012101210212211,
#SCROLL 1.5
500000000000000000000000000000000000000008000000,
#SCROLL 1
1022102210221212,
1022102212221202,
1022111110003000,
102020100000400000000000100000200000100100100100,
1001001010221111,
2022122012121222,
1020121120004000, //30
#GOGOSTART
1011201120122210,
2011212120112020,
200000202020100000200000100000200200100000200000,
1022202010201010,
2011201120112211,
1011201111221120,
1111221111221010,
0030303030001110,
2011201120122210,
2011212120112020,
200000202020100000200000100000200200100000200000,
312312322322,
3011201120112011,
2222222222222222,
100010001010100200000400,
101011402020, //46
#GOGOEND
31111111,
#SCROLL 1.1
111111111111,
#SCROLL 1.2
100100100100100100100100
#SCROLL 1.3
101010101010101010101010,
#SCROLL 1.5
400000400000400000000000
#SCROLL 1
700000000000080000000000,
111100200200300200000200,
32023232,
30223202,
3020002030202011,
10223202,
32023232,
30223202,
3020002210202020,
101010100000400000100100100000100100200000100000,
1010201011102010,
1000111110102210,
0010211120002022,
1000102010201120,
1022102210200022,
1121112212221122,
1222111211201000,
11111111,
#SCROLL 1.1
111111111111,
#SCROLL 1.2
100100100100100100100100
#SCROLL 1.3
101010101010101010101010,
#SCROLL 1.5
40404000
#SCROLL 1
12221222, //70
1000
#SCROLL 2
#GOGOSTART
40
#SCROLL 1
1012201020,
1220112011221220,
1211201211201122,
1121211121112211,
2020122012221022,
200000100100200100200000200000202020100000200000,
#GOGOEND
1011101000111010,
1020003011221122,
#GOGOSTART
500000000000000000000000000008000000100010001000,
200010001000200010001000200100100100200100100100,
100200222222100200222100,
222100222100000000300000,
600000000000000000000008000000000000400000000000,
3043030
#GOGOEND
3,
1011101000101020,
1011101000004000, //86
10000001,
0011,
1000001110001110,
0011102211104000,
1022102012201222,
1022102012201222,
1000222222221111,
#SCROLL 1.5
4440
#SCROLL 1
0000,
10210201,
02010201,
1211201211201211,
034444,
#GOGOSTART
3010221022112022,
100000200000100100200100200000202020100000200000,
#GOGOEND
1011101000101010,
1020002011112222, //102
#GOGOSTART
500000000000000000000000000008000000100020002000,
100020002000100020002000100100200200100100200200,
100100200100100200100100201010100200101010200000,
0011221022102010,
0010212211212211,
200100200200100100200200101010101010200000300000,
#GOGOEND
#SCROLL 1.1
00303000
#SCROLL 1.2
12121212,
12121212
#SCROLL 1.3
12123000,
#SCROLL 1.5
#GOGOSTART
400400400400
#SCROLL 1
1111,
#SCROLL 1.5
300000000300000000300000000300000000
#SCROLL 1
101010101010,
#SCROLL 1.5
400400400400
#SCROLL 1
2021,
122212221222
#SCROLL 1.5
3000,
#SCROLL 1
100000100200101010200000100200000200100100202020,
100000200100201010100000200100100100202020100000, //116
2121112111211120,
000000100200100000102020200000200200100100100000,
2121112111211210,
000000100200100000101020200000200200100100100000,
2121112111211120,
000000100200100000102020200000200200100100200000,
200200100100100100100100200200102020200000500000,
000000000000000008000000700000000000000000000000,
0000800022222222,
121212121111
#SCROLL 2
4000, //126
#GOGOEND
#SCROLL 1
400000000400000000400000000400000000100000001000,
400000000400000000400000000400000000100010001000,
400000000400000000400000000400000000100000001010,
2002001120020011,
100200200100200200100200200100200200100000001000,
100200200100200200100200200100200200100010001000,
200000101010100000200000100100100000200000200000,
0022201020201010,
#GOGOSTART
0020001110101020,
0
#SCROLL 3
4000000,
#GOGOEND
#SCROLL 1
0, //137
#END
COURSE:Oni
LEVEL:10
BALLOON:3,3,10
SCOREINIT:340,1000
SCOREDIFF:80
#START
10220201,
02010201,
#BPMCHANGE 236.88
10210220,
#BPMCHANGE 236
11030020,
500000000000000000000000000008000000200000000000,
30440402,
100000000100000000100000000100000000100000001000,
100000000100000000100000000100000000100010001000,
100000000100000000100000000100000000100000001000,
1001001120020022,
100000000100000000100000000100000000100000001000,
100000000100000000100000000100000000100010001000,
21121122,
01112211, //14
#SCROLL 1.5
500000000000000008000000
#SCROLL 1
100000200000100000200000,
10121210,
12101212,
1020111110003000,
11401212,
1000102010201111,
1000200022201010,
2000101010221000,
#SCROLL 1.5
500000000000000000000000000000000000000008000000,
#SCROLL 1
10121210,
12101212,
1020111110003000,
11401212,
1001001010201000,
22221122,
1020111120004000, //30
#GOGOSTART
1010201020102210,
2010202010112020,
2022102000101020,
12121122,
1011101110112020,
1011101110221020,
1110201110222010,
03333020,
1010201020102210,
2010202010112020,
2022102000101010,
222222111111,
1011201020112010,
2022202220222220,
100010001010100200000400,
04, //46
#GOGOEND
30111111,
#SCROLL 1.1
111111111111,
#SCROLL 1.2
500000000000000000000000000000000000000008000000,
#SCROLL 1.5
400000400000400000000000
#SCROLL 1
700000000000080000000000,
10221202,
12021210,
10221202,
1020002010222020,
10221202,
12021212,
10221202,
1020002220202020,
10410121,
01210121,
1000111010100010,
0222,
10121212,
1022102010200020,
1011102210111022,
1011102210101000,
30111111,
#SCROLL 1.1
111111111111,
#SCROLL 1.2
500000000000000000000000000000000000000008000000,
#SCROLL 1.5
400000400000400000000000
#SCROLL 1
700000000000080000000000, //70
10
#SCROLL 2
#GOGOSTART
4
#SCROLL 1
10212,
1120102011201020,
1111201111201020,
1022201000111110,
2020101022101020,
2011201020112220,
#GOGOEND
11110111,
12030300,
#GOGOSTART
500000000000000000000000000008000000100010001000,
200010001000200010001000200200200200100000000000,
1222222212222212,
2212221000003000,
600000000000000000000008000000000000400000000000,
3043030
#GOGOEND
3,
1011101000101020,
1011101000004000, //86
10020201,
02021010,
10211211,
0011101011104000,
1002102012001020,
1002102012001020,
1000222222221000,
#SCROLL 1.5
4440
#SCROLL 1
0000,
1,
0,
1022201022201122,
034444,
#GOGOSTART
3010202011201020,
1120112020221020,
#GOGOEND
11110111,
1020002011112000, //102
#GOGOSTART
500000000000000000000000000008000000200020002000,
100020002000100020002000100100200200100000200000,
100100100100200000100100100100200000101010200000,
02212122,
0010201110201110,
2011102011111030,
#GOGOEND
#SCROLL 1.1
00303000
#SCROLL 1.2
12121212,
100200100200100200100200
#SCROLL 1.3
500000000008000000000000,
#SCROLL 1
#GOGOSTART
4004004004001010,
4004004004001110,
4004004004001010,
111011101111
#SCROLL 1.5
4000,
#SCROLL 1
2012012012002020,
1022101022101020, //116
2011104000400040,
0010102220202010,
2011104000400030,
0010101220201010,
2011104000400040,
0010102220202010,
2211111122112050,
000000000000000008000000700000000000000000000000,
0000800022222222,
222222222222
#SCROLL 2
4000, //126
#GOGOEND
#SCROLL 1
100000000100000000100000000100000000100000001000,
100000000100000000100000000100000000100010001000,
100000000100000000100000000100000000100000001000,
1001001120020020,
1111111111112000,
1111111111112000,
21121122,
0011101020201010,
#GOGOSTART
0020001110101020,
0
#SCROLL 3
4000000,
#GOGOEND
#SCROLL 1
0, //137
#END
COURSE:Hard
LEVEL:8
BALLOON:24
SCOREINIT:390,1640
SCOREDIFF:95
#START
10220201,
02010201,
#BPMCHANGE 236.88
10220220,
#BPMCHANGE 236
11030010,
500000000000000000000000000008000000200000000000,
30330306,
0,
000000000000000000000000000000000000000000000008,
0,
2002002020000000,
3001001001000000,
3001001001000000,
10220201,
02202020, //14
#SCROLL 1.5
500000000000000008000000
#SCROLL 1
100000000000100000000000,
10121010,
10101212,
10111030,
10401212,
10121010,
10202022,
2122,
#SCROLL 1.5
500000000000000000000000000000000000000008000000,
#SCROLL 1
10121010,
10101212,
10111030,
10401212,
1001001010001000,
20202220,
11111040, //30
#GOGOSTART
11201122,
10222020,
22122010,
12121020,
12121122,
11102220,
500000000000000000000000000008000000200000200000,
03333020,
11201122,
10222020,
22122010,
222200111100,
10212120,
22222220,
100010001000000200000400,
04, //46
#GOGOEND
3111,
#SCROLL 1.1
1111,
#SCROLL 1.2
500000000000000000000000000000000000000008000000,
#SCROLL 1.5
4440
#SCROLL 1
0000,
10201202,
02020210,
10201202,
02020220,
10201202,
02020210,
10201202,
10002220,
10210101,
01010110,
10001101,
0222,
1111,
10101202,
10121012,
10111110,
1111,
#SCROLL 1.1
1111,
#SCROLL 1.2
500000000000000000000000000000000000000008000000,
#SCROLL 1.5
4440
#SCROLL 1
0000, //70
10
#SCROLL 1.5
#GOGOSTART
4
#SCROLL 1
00210,
10121210,
10211210,
11010220,
10101210,
10112220,
#GOGOEND
11110111,
12030300,
#GOGOSTART
500000000000000000000000000008000000100000000000,
100010001000100000000000100100100000100000000000,
30223023,
03030030,
600000000000000000000008000000000000400000000000,
3043030
#GOGOEND
3,
11110112,
11110040, //86
10020201,
0011,
10001011,
0114,
1002001002001000,
1002001002001000,
100000000000500000000000000000000008000000000000,
44400000,
2,
0,
20220202,
034444,
#GOGOSTART
30201210,
10112220,
#GOGOEND
11110111,
12020120, //102
#GOGOSTART
500000000000000000000000000008000000200000000000,
200020002000200000000000200200200000200000000000,
11211212,
02202021,
01201201,
20121023,
#GOGOEND
#SCROLL 1.1
0330
#SCROLL 1.2
1111,
100000100000100000100000
#SCROLL 1.3
500000000008000000000000,
#SCROLL 1
#GOGOSTART
4004004004001000,
4004004004001000,
4004004004001000,
11111040,
2002001010202000,
11221120, //116
21040404,
01012220,
21040403,
01011220,
21040404,
01012220,
21112125,
000000000000000008000000700000000000000000000000,
0,
0008, //126
#GOGOEND
1001001001000000,
1001001001000000,
1001001001000000,
2002002010010010,
3003003003000000,
3003003003000000,
11102022,
01102211,
#GOGOSTART
02011112,
04000000,
#GOGOEND
0, //137
#END
COURSE:Normal
LEVEL:6
BALLOON:4,7,15
SCOREINIT:450,2730
SCOREDIFF:113
#START
10000001,
0,
#BPMCHANGE 236.88
1,
#BPMCHANGE 236
30030000,
500000000000000000000000000008000000000000000000,
30330306,
0,
000000000000000000000000000000000000000000000008,
0,
22,
3001001001000000,
3001001001000000,
10000001,
02, //14
#SCROLL 1.5
500000000008000000000000
#SCROLL 1
100000000000100000000000,
1121,
10100110,
1123,
10400110,
1121,
1022,
2022,
#SCROLL 1.5
500000000000000000000000000000000008000000000000,
#SCROLL 1
1121,
10100110,
1123,
10400110,
500000000000000000000000000008000000000000000000,
2022,
1110, //30
#GOGOSTART
1112,
1110,
2222,
1110,
1112,
1112,
500000000000000000000000000000000000000008000000,
03033000,
1112,
1110,
2222,
500000000000000000000000000000000008000000000000,
1111,
20201110,
10000004,
04, //46
#GOGOEND
31,
#SCROLL 1.1
11,
#SCROLL 1.2
500000000000000000000000000000000000000008000000,
#SCROLL 1.5
4440
#SCROLL 1
0000,
12,
22,
12,
22,
12,
22,
12,
1022,
5,
000000000000000000000000000008000000000000000000,
10001001,
0222,
1011,
1110,
1111,
10101110,
11,
#SCROLL 1.1
11,
#SCROLL 1.2
500000000000000000000000000000000000000008000000,
#SCROLL 1.5
4440
#SCROLL 1
0000, //70
10
#SCROLL 1.5
#GOGOSTART
4
#SCROLL 1
01010,
1110,
1111,
20020020,
1112,
10102220,
#GOGOEND
10110101,
11030300,
#GOGOSTART
500000000000000000000000000008000000000000000000,
2222,
30003003,
03030030,
600000000000000000000008000000000000000000000000,
3033030
#GOGOEND
6,
0,
000000000000000008000000000000000000000000000000, //86
10000001,
0011,
10001001,
0110,
10010010,
20020020,
100000000000500000000000000000000008000000000000,
44400000,
2,
0,
2,
000000007000000000000000000000000000000008000000,
#GOGOSTART
1112,
10102220,
#GOGOEND
10110101,
11020200, //102
#GOGOSTART
500000000000000000000000000008000000000000000000,
2222,
10101011,
00202022,
0222,
20202003,
#GOGOEND
03307000,
000000000000000000000008000000000000000000000000,
#GOGOSTART
4004004004000000,
4004004004000000,
4004004004000000,
1114,
2111,
1111, //116
30040404,
00002220,
30040403,
00001110,
30040404,
00002220,
10102025,
000000000000000008000000700000000000000000000000,
0,
0008, //126
#GOGOEND
1001001001000000,
1001001001000000,
1001001001000000,
22,
3001001001000000,
3001001001000000,
10000001,
00002022,
#GOGOSTART
01011111,
04000000,
#GOGOEND
0, //137
#END
COURSE:Easy
LEVEL:5
BALLOON:3,5,11
SCOREINIT:420,4360
SCOREDIFF:105
#START
1,
0,
#BPMCHANGE 236.88
1,
#BPMCHANGE 236
3,
500000000000000000000000000008000000000000000000,
30000006,
0,
000000000000000000000000000000000000000000000008,
0,
22,
3,
3,
10000001,
0, //14
#SCROLL 1.5
0
#SCROLL 1
1,
1110,
1100,
1110,
1100,
1110,
1,
22,
#SCROLL 1.5
500000000000000000000000000008000000000000000000,
#SCROLL 1
1110,
1100,
1110,
1100,
500000000000000000000000000008000000000000000000,
22,
1110, //30
#GOGOSTART
1110,
1110,
2220,
2220,
1110,
1110,
500000000000000000000000000000000008000000000000,
03003000,
1110,
1110,
2220,
500000000000000000000000000008000000000000000000,
1110,
1111,
10000004,
04, //46
#GOGOEND
3,
#SCROLL 1.1
1,
#SCROLL 1.2
500000000000000000000000000008000000000000000000,
#SCROLL 1.5
4
#SCROLL 1
0,
12,
02,
12,
02,
12,
02,
12,
02,
5,
000000000000000000000000000008000000000000000000,
10001001,
0011,
1,
11,
1110,
1110,
1,
#SCROLL 1.1
1,
#SCROLL 1.2
500000000000000000000000000008000000000000000000,
#SCROLL 1.5
4
#SCROLL 1
0, //70
10
#SCROLL 1.5
#GOGOSTART
0
#SCROLL 1
01000,
1110,
1110,
2,
1110,
1110,
#GOGOEND
1,
10030300,
#GOGOSTART
500000000000000000000000000008000000000000000000,
22,
30003003,
03030000,
600000000000000000000008000000000000000000000000,
1001010
#GOGOEND
6,
0,
000000000000000008000000000000000000000000000000, //86
10000001,
0011,
10001001,
01,
10010000,
20020000,
1100,
4400,
2,
0,
2,
000000007000000000000000000000000000000008000000,
#GOGOSTART
1110,
1110,
#GOGOEND
1,
10010000, //102
#GOGOSTART
500000000000000000000000000008000000000000000000,
22,
10101001,
00101002,
0222,
20202003,
#GOGOEND
#SCROLL 1.1
03
#SCROLL 1.2
70,
000000000000000000000008
#SCROLL 1.3
000000000000000000000000,
#SCROLL 1
#GOGOSTART
40040000,
40040000,
40040000,
1110,
1110,
1110, //116
30040404,
02,
30040403,
01,
30040404,
02,
10001005,
000000000000000008000000700000000000000000000000,
0,
0008, //126
#GOGOEND
1,
1,
1,
22,
3,
3,
10000001,
0,
#GOGOSTART
06000000,
000008000000000000000000000000000000000000000000,
#GOGOEND
0, //137
#END