Files
TJA-by-song-no/tja/123.tja
2026-03-04 23:59:27 +09:00

342 lines
4.3 KiB
Plaintext

//TJADB Project
TITLE:Zenryoku Batankyu
TITLEJA:全力バタンキュー
SUBTITLE:--AOP/Osomatsu-san
SUBTITLEJA:「おそ松さん」より
BPM:155
WAVE:Zenryoku Batankyu.ogg
OFFSET:-1.725
DEMOSTART:40.434
//shinuchi: 12610/5440/2960/1770
COURSE:Oni
LEVEL:8
BALLOON:4
SCOREINIT:560,1880
SCOREDIFF:148
#START
1011201020112010,
0010201022112010,
1011201120112010,
0010201212112022,
1011201020112010,
0010201022112010,
1011201122112050,
000000000000000000000000000000000000000008000000, //8
1020102010111010,
1022202000101020,
0000201011201011,
2010112010700080,
1020102010111010,
1022202000101020,
0000201022111020,
1020202022101020,
1122221120102011, //17
2000400020102011,
2000300010201120,
1011201011221050,
000000000000000000000008000000000000200000100000,
2011201022112010,
2011201022112010,
30430460,
000000000000000000000000000000000000000008000000,
3000302220202211, //26
#GOGOSTART
1011201010222020,
0010401110102022,
1011201010221020,
0030401222102022,
1011201010222020,
0010401110102022,
1011201010112210,
3000402212112022, //34
1011201110112011,
1011201110112011,
1011201210112012,
1011201212112210,
33302220,
3030300022112212,
2020201120201120,
0040402220202211, //42
1011201010222020,
0010401110102022,
1011201010221020,
0010401222102022,
1011201010222020,
0022201122102022,
10333333,
0020202212112022, //50
#GOGOEND
1011201020112010,
0010201022112010,
1011201120112010,
0010201212112022,
1011201020112010,
0010201022112010,
2211221121204040,
0, //58
#END
COURSE:Hard
LEVEL:6
BALLOON:11,13
SCOREINIT:750,3340
SCOREDIFF:208
#START
10201121,
0010200011102000,
10201121,
0010200011101010,
10201121,
0010200011102000,
10201125,
000000000000000000000000000000000000000008000000, //8
10101110,
22020112,
00212127,
0008,
10101110,
22020112,
00221127,
00000008,
00001121, //17
10401122,
10401222,
10211225,
000000000000000000000008000000000000100000100000,
21121120,
21121120,
30330360,
000000000000000000000000000000000000000008000000,
30320222, //26
#GOGOSTART
1000200010111020,
00410121,
1000200010222020,
03410221,
1000200010111020,
00410121,
10201122,
30401120, //34
1110200010102000,
1110200010102000,
1110200022202000,
500000000000000000000008000000000000200000200000,
33302220,
33306000,
000000000000000000000000000000000000000000000008,
00020222, //42
1000200010111020,
00410121,
1000200010222020,
00410221,
1000200010111020,
0010201000102011,
10333333,
0, //50
#GOGOEND
10201121,
0010200011102000,
10201121,
0010200011101010,
10201121,
0010200011102000,
21121144,
0, //58
#END
COURSE:Normal
LEVEL:4
BALLOON:8,15,18,6
SCOREINIT:940,6050
SCOREDIFF:320
#START
10101011,
01102020,
10101011,
0022,
10101011,
01102020,
1115,
000000000000000000000000000000000008000000000000, //8
1110,
10000111,
00202027,
0008,
1110,
10000111,
0700,
00000008,
0011, //17
1011,
1011,
2250,
000000000000000000000008000000000000000000000000,
1122,
1122,
9,
09,
8, //26
#GOGOSTART
10101101,
00020020,
10101101,
00020020,
10101101,
00020020,
10101022,
0011, //34
2011,
2011,
2222,
2,
33300000,
33306000,
000000000000000000000000000000000000000000000008,
0, //42
10101101,
00020020,
10101101,
00020020,
10101101,
00020020,
20333037,
0008, //50
#GOGOEND
10101011,
01102020,
10101011,
0022,
10101011,
01102020,
10101044,
0, //58
#END
COURSE:Easy
LEVEL:2
BALLOON:9,11,13,6
SCOREINIT:1280,13900
SCOREDIFF:875
#START
11,
1011,
5,
000000000000000008000000000000000000000000000000,
11,
1022,
5,
000000000000000000000000000008000000000000000000, //8
11,
1,
0700,
00000800,
11,
1,
0700,
00000008,
0, //17
1,
2,
5,
000000000000000000000008000000000000000000000000,
11,
22,
9,
09,
8, //26
#GOGOSTART
10101001,
0,
10101001,
0,
10101001,
0,
5,
000008000000000000000000100000000000100000000000, //34
1011,
1022,
22,
2,
3300,
3360,
000000000000000000000000000000000000000000000008,
0, //42
10101001,
0,
10101001,
0,
10101001,
0,
0700,
00000800, //50
#GOGOEND
11,
1011,
5,
000000000000000008000000000000000000000000000000,
11,
1022,
500000000000000000000000000000000000000000000008,
0, //58
#END