194 lines
1.9 KiB
Plaintext
194 lines
1.9 KiB
Plaintext
//TJADB Project
|
|
TITLE:Fairy Tale
|
|
TITLEJA:Fairy Tale
|
|
TITLEZH:说谎
|
|
SUBTITLE:--
|
|
SUBTITLEJA:
|
|
SUBTITLEZH:出自 "杜拉拉升职记"
|
|
BPM:64
|
|
WAVE:Fairy Tale.ogg
|
|
OFFSET:-3.848
|
|
DEMOSTART:69.465
|
|
|
|
COURSE:Oni
|
|
LEVEL:6
|
|
BALLOON:8
|
|
SCOREINIT:4380
|
|
SCOREDIFF:0
|
|
|
|
#START
|
|
22202220,
|
|
22202000,
|
|
|
|
1010101110101022,
|
|
1120202010102020,
|
|
1010101110101022,
|
|
1120202010201010,
|
|
|
|
1001201020001020,
|
|
1001201020001010,
|
|
12211212,
|
|
1000101022010110, //10
|
|
|
|
1010201110101022,
|
|
1120201011102022,
|
|
1010201110102022,
|
|
1120222010101110,
|
|
|
|
1001201020101110,
|
|
1010202012201010,
|
|
1010222010012070,
|
|
0080221111101020, //18
|
|
|
|
#GOGOSTART
|
|
1110201011102020,
|
|
1110201011101020,
|
|
1011222011221020,
|
|
1011211011101020,
|
|
|
|
1110201011102220,
|
|
1022020110101020,
|
|
1010221110201060,
|
|
000000000008,
|
|
#GOGOEND
|
|
0,
|
|
0, //28
|
|
#END
|
|
|
|
|
|
COURSE:Hard
|
|
LEVEL:4
|
|
BALLOON:12
|
|
SCOREINIT:6400
|
|
SCOREDIFF:0
|
|
|
|
#START
|
|
2222,
|
|
2220,
|
|
|
|
1000101110101020,
|
|
10002220,
|
|
1000101110101020,
|
|
10001011,
|
|
|
|
10112011,
|
|
10112011,
|
|
12211022,
|
|
10112000, //10
|
|
|
|
1000201110101020,
|
|
10201120,
|
|
1000201110101020,
|
|
1000222010001010,
|
|
|
|
10112011,
|
|
11222011,
|
|
11221017,
|
|
00801112, //18
|
|
|
|
#GOGOSTART
|
|
1110200010102020,
|
|
1110200010101020,
|
|
1010222010111010,
|
|
1011010010101020,
|
|
|
|
1110200010102020,
|
|
500000000000000000000000000008000000100000200000,
|
|
11211016,
|
|
000000000008,
|
|
#GOGOEND
|
|
0,
|
|
0, //28
|
|
#END
|
|
|
|
|
|
COURSE:Normal
|
|
LEVEL:4
|
|
BALLOON:9
|
|
SCOREINIT:9210
|
|
SCOREDIFF:0
|
|
|
|
#START
|
|
22,
|
|
2220,
|
|
|
|
10111010,
|
|
12,
|
|
10111010,
|
|
10001011,
|
|
|
|
10110011,
|
|
10110010,
|
|
11110022,
|
|
02, //10
|
|
|
|
10111010,
|
|
12,
|
|
10111010,
|
|
10001011,
|
|
|
|
10110011,
|
|
11222011,
|
|
10111017,
|
|
00801110, //18
|
|
|
|
#GOGOSTART
|
|
11201110,
|
|
11201110,
|
|
10222011,
|
|
10201110,
|
|
|
|
11201110,
|
|
500000000000000000000000000008000000000000000000,
|
|
11111016,
|
|
000000000008,
|
|
#GOGOEND
|
|
0,
|
|
0, //28
|
|
#END
|
|
|
|
|
|
COURSE:Easy
|
|
LEVEL:3
|
|
BALLOON:6
|
|
SCOREINIT:13830
|
|
SCOREDIFF:0
|
|
|
|
#START
|
|
22,
|
|
2,
|
|
|
|
1011,
|
|
1,
|
|
1011,
|
|
1001,
|
|
|
|
10110010,
|
|
10110010,
|
|
10110022,
|
|
0, //10
|
|
|
|
1111,
|
|
1,
|
|
1111,
|
|
1001,
|
|
|
|
10110010,
|
|
1220,
|
|
10101017,
|
|
00801110, //18
|
|
|
|
#GOGOSTART
|
|
10001110,
|
|
10001110,
|
|
12,
|
|
10001110,
|
|
|
|
10001110,
|
|
500000000000000000000000000008000000000000000000,
|
|
10101016,
|
|
000000000008,
|
|
#GOGOEND
|
|
0,
|
|
0, //28
|
|
#END |