Files
TJA-by-song-no/tja/1307.tja
2026-03-04 23:59:27 +09:00

548 lines
7.3 KiB
Plaintext

//TJADB Project
TITLE:Daidara 8551
TITLEJA:大多羅捌伍伍壱
SUBTITLE:--YMY
BPM:111.4
WAVE:Daidara 8551.ogg
OFFSET:-2.440
DEMOSTART:105.147
COURSE:Oni
LEVEL:9
BALLOON:8,8,10,60
SCOREINIT:490
SCOREDIFF:125
#START
#SCROLL 1.3
3,
#BPMCHANGE 116.6
#SCROLL 1.24
3,
#BPMCHANGE 120
#SCROLL 1.21
3
#BPMCHANGE 125.6
#SCROLL 1.15
3,
#BPMCHANGE 137.7
#SCROLL 1.08
33
#BPMCHANGE 143.4
#SCROLL 1.01
33,
#GOGOSTART
#BPMCHANGE 145
#SCROLL 1.24
3030002011221000,
3030002011221000,
3030002011221000,
1021021022102210,
4040001022112000,
4040001022112000,
4040001022112000,
2012012010102210,
3030002021112000,
3030002012221000,
3030002021112000,
1021021011201120,
4040001012112000,
4040001012212000,
4040000012112000,
#BPMCHANGE 145.2
100000200100000100200000
#GOGOEND
#BPMCHANGE 140.7
#SCROLL 1.05
100010001000
#BPMCHANGE 137.3
#SCROLL 1.08
200020002000,
#BPMCHANGE 148
#SCROLL 1
100012100012,
100012101222,
100012100012,
100000001020101110202020,
100010200011100010201010,
100010200011100010202020,
100010200011100010201010,
201201111222,
100010200011100010201010,
100010200011100010201020,
100010200011100010201010,
102101111212,
101020112112,
101020221221,
101020112112,
100010002000111010222020,
101012101012,
101012101212,
100010002000111010222020,
300000000000202220200020,
#GOGOSTART
101201111202,
101201111212,
101201111202,
100010200010111010202020,
101221101222,
101221101222,
111402111402,
111010400020111010400020,
221221221221,
100011101020100010201020,
100011101020100010201020,
100022201020100010202020,
100022201020101110202020,
#GOGOEND
122102301112,
#MEASURE 2/4
34,
#MEASURE 4/4
122112301112,
300000400000101110202020,
111020202010300010111010,
#MEASURE 2/4
401402,
#MEASURE 4/4
111020202010400010112020,
300010400010111010202020,
#BPMCHANGE 135.9
#SCROLL 1.09
5,
00000000000000080000000000000000
#BPMCHANGE 150
#SCROLL 0.96
20002000200020002000200020000000,
#BPMCHANGE 145
#SCROLL 1
3030001012221220,
4040001021112110,
3030001012221220,
1021021022102210,
3030001170000800,
4040002270000800,
3030001170000800,
100000200100000200100000100010001000200020002000,
7,
,
#BPMCHANGE 140
#SCROLL 1.04
000000000000000800202020,
3,
#END
COURSE:Hard
LEVEL:8
BALLOON:45
SCOREINIT:530
SCOREDIFF:148
#START
#SCROLL 1.3
3,
#BPMCHANGE 116.6
#SCROLL 1.24
3,
#BPMCHANGE 120
#SCROLL 1.21
3
#BPMCHANGE 125.6
#SCROLL 1.15
3,
#BPMCHANGE 137.7
#SCROLL 1.08
33
#BPMCHANGE 143.4
#SCROLL 1.01
33,
#BPMCHANGE 145
#SCROLL 1.24
#GOGOSTART
3030000010111000,
3030000010111000,
3030000010111000,
1001002010101110,
4040000020222000,
4040000020222000,
4040000020222000,
1001002010101110,
3030000020222000,
3030000020222000,
3030000020222000,
1001002010102220,
4040000010111000,
4040000010111000,
4040000010111000,
#BPMCHANGE 145.2
100000000100000000200000
#GOGOEND
#BPMCHANGE 140.7
#SCROLL 1.05
100010001000
#BPMCHANGE 137.3
#SCROLL 1.08
200020002000,
#BPMCHANGE 148
#SCROLL 1
100011100011,
100011100202,
100011100011,
100011100202,
100111100101,
100111100202,
100111100101,
100000111202,
100111100101,
100111100202,
100111100101,
100000111202,
100011101101,
100011101202,
100011101101,
100000111202,
100111101101,
100111101202,
111102111102,
3002,
#GOGOSTART
101201101100,
101201101111,
101201101100,
101201101111,
101202101100,
101202101111,
100400101400,
111400101400,
101101101101,
100011100020200010100020,
201102201102,
101101101102,
100010100010101110100000,
#GOGOEND
111101300111,
#MEASURE 2/4
34,
#MEASURE 4/4
100111300111,
300400111100,
111202300111,
#MEASURE 2/4
43,
#MEASURE 4/4
222111400222,
300400111222,
#BPMCHANGE 135.9
#SCROLL 1.09
5,
#SCROLL 0.96
00000000000000080000000000000000
#BPMCHANGE 150
10001000100010001000000000000000,
#BPMCHANGE 145
#SCROLL 1
3000000030000000000000000000000060000000000000080000000000000000,
4000000040000000000000000000000060000000000000080000000000000000,
3000000030000000000000000000000060000000000000080000000000000000,
1001002010102220,
3030000022222000,
4040000011111000,
3030000022222000,
100000000100000000200000100010001000200020002000,
7,
,
#BPMCHANGE 140
#SCROLL 1.04
000000000000000800202020,
3,
#END
COURSE:Normal
LEVEL:7
BALLOON:10,4,4,4,20
SCOREINIT:980
SCOREDIFF:145
#START
#SCROLL 1.3
3,
#BPMCHANGE 116.6
#SCROLL 1.24
3,
#BPMCHANGE 120
#SCROLL 1.21
3
#BPMCHANGE 125.6
#SCROLL 1.15
3,
#BPMCHANGE 137.7
#SCROLL 1.08
33
#BPMCHANGE 143.4
#SCROLL 1.01
30,
#BPMCHANGE 145
#SCROLL 1.24
#GOGOSTART
3000000030000000000000000000000060000000000000080000000000000000,
3000000030000000000000000000000060000000000000080000000000000000,
3000000030000000000000000000000060000000000000080000000000000000,
1110,
4000000040000000000000000000000060000000000000080000000000000000,
4000000040000000000000000000000060000000000000080000000000000000,
4000000040000000000000000000000060000000000000080000000000000000,
2220,
33002020,
33002020,
33002020,
20001110,
44001010,
44001010,
44001010,
#BPMCHANGE 145.2
10
#GOGOEND
#BPMCHANGE 140.7
#SCROLL 1.05
3
#BPMCHANGE 137.3
#SCROLL 1.08
3,
#BPMCHANGE 148
#SCROLL 1
31,
100000101100,
11,
100000101100,
11,
1012,
11,
100000101100,
11,
1012,
11,
100000101100,
12,
1022,
100000101100,
1022,
12,
1000001011000,
1122,
3002,
#GOGOSTART
1212,
1210,
1212,
1001011000000,
1212,
1210,
0303,
0404,
0111,
1202,
1202,
1202,
1210,
#GOGOEND
3033,
#MEASURE 2/4
3,
#MEASURE 4/4
3033,
3,
4044,
#MEASURE 2/4
4,
#MEASURE 4/4
4044,
4033,
#BPMCHANGE 135.9
#SCROLL 1.09
9,
#SCROLL 0.96
8
#BPMCHANGE 150
0,
#BPMCHANGE 145
#SCROLL 1
33001110,
44002220,
33001110,
1001003030000000,
33007080,
44007080,
33007080,
1001003030003000,
7,
,
#BPMCHANGE 140
#SCROLL 1.04
8003,
3,
#END
COURSE:Easy
LEVEL:4
BALLOON:8,3,3,3,15
SCOREINIT:570
SCOREDIFF:208
#START
#SCROLL 1.3
3,
#BPMCHANGE 116.6
#SCROLL 1.24
3,
#BPMCHANGE 120
#SCROLL 1.21
3
#BPMCHANGE 125.6
#SCROLL 1.15
3,
#BPMCHANGE 137.7
#SCROLL 1.08
33
#BPMCHANGE 143.4
#SCROLL 1.01
30,
#BPMCHANGE 145
#SCROLL 1.24
#GOGOSTART
3000000000000000000000000000000060000008000000000000000000000000,
3000000000000000000000000000000060000008000000000000000000000000,
3000000000000000000000000000000060000008000000000000000000000000,
1,
4000000000000000000000000000000060000008000000000000000000000000,
4000000000000000000000000000000060000008000000000000000000000000,
4000000000000000000000000000000060000008000000000000000000000000,
2,
3000000030000000000000000000000060000000000000080000000000000000,
3000000030000000000000000000000060000000000000080000000000000000,
3000000030000000000000000000000060000000000000080000000000000000,
1,
4000000040000000000000000000000060000000000000080000000000000000,
4000000040000000000000000000000060000000000000080000000000000000,
4000000040000000000000000000000060000000000000080000000000000000,
#BPMCHANGE 145.2
10
#GOGOEND
#BPMCHANGE 140.7
#SCROLL 1.05
3
#BPMCHANGE 137.3
#SCROLL 1.08
3,
#BPMCHANGE 148
#SCROLL 1
3,
1011,
11,
1011,
11,
1011,
11,
12,
11,
1011,
11,
1,
12,
12,
1011,
1,
12,
12,
1110,
3,
#GOGOSTART
11,
1110,
11,
1110,
11,
1110,
0303,
0303,
6000000000000000000000000000000000000008000000000000000000000000,
1210,
1210,
1210,
1210,
#GOGOEND
3033,
#MEASURE 2/4
,
#MEASURE 4/4
3033,
3,
4044,
#MEASURE 2/4
,
#MEASURE 4/4
4044,
4,
#BPMCHANGE 135.9
#SCROLL 1.09
9,
#SCROLL 0.96
8
#BPMCHANGE 150
0,
#BPMCHANGE 145
#SCROLL 1
3000000030000000000000000000000060000000000000080000000000000000,
4000000040000000000000000000000060000000000000080000000000000000,
3000000030000000000000000000000060000000000000080000000000000000,
1110,
33007080,
44007080,
33007080,
1110,
7,
,
#BPMCHANGE 140
#SCROLL 1.04
8,
3,
#END