Files
TJA-by-song-no/tja/1309.tja
2026-03-04 23:59:27 +09:00

849 lines
12 KiB
Plaintext
Raw Blame History

This file contains ambiguous Unicode characters
This file contains Unicode characters that might be confused with other characters. If you think that this is intentional, you can safely ignore this warning. Use the Escape button to reveal them.
//TJADB Project
TITLE:Koko Doko? Tabun Dokka-tou!
TITLEJA:ココドコ?多分ドッカ島!
SUBTITLE:--FOCUS ON (Nijisanji) x Taiko no Tatsujin
SUBTITLEJA:FOCUS ON (にじさんじ) × 太鼓の達人
BPM:153
WAVE:Koko Doko Tabun Dokka-tou.ogg
OFFSET:-1.370
DEMOSTART:46.842
SONGVOL:100
SEVOL:100
SCOREMODE:2
//shinuchi: 5870/3440/1910/1500/1010
COURSE:Edit
LEVEL:10
BALLOON:9,24,17
SCOREINIT:380,1060
SCOREDIFF:88
#START
3,
0,
1022220202222020,
2022220202022020,
1022220212222020,
100010001000200020002000100010001000200000100200,
#GOGOSTART
1022120212021220,
1022120212021022,
1022120212021220,
300300111100, //10
#GOGOEND
1000100010011010,
#MEASURE 3/4
100000000000100000100100100000101010,
#MEASURE 4/4
1021120210211022,
#MEASURE 3/4
120210202011,
#MEASURE 4/4
2010220210112010,
#MEASURE 3/4
101122021121,
#MEASURE 4/4
2022102010227000,
#MEASURE 3/4
000080102100, //18
#MEASURE 4/4
1000000200202020,
100200200100200200100200000200100200100100101010,
200000000200000000200000000000200000100000202020,
1020102210102212,
1001001020102122,
100000200000100000200000100100200200102020202020,
100000000100000000100000200000000200100100202020,
100200100200100200100100200200100000100000202020,
1012102212121120,
100000100200100000100200100100200000100100202020,
102220100000101110200000,
102220102220100000000000, //30
#GOGOSTART
1111021111022210,
1012012110112022,
1022102211221120,
3434,
100100100100000200100100100100200200202020202020,
1022112010221120,
100000200200100100202020200100100200100000200000,
100200200100200200101010200200101010202020100000,
1021012011120212,
100100200100100200100100200100101010200200100100,
2034,
111221200000, //42
#GOGOEND
#BPMCHANGE 101.5
#SCROLL 1.8
3300000044000000,
#SCROLL 1.3
10202010102210201020201010201020,
100200200100100200100200100200200100100200222222,
1021112210210120,
700000000000000000000000000000000000000800222222,
10001000104000000000100020001122,
10102022101020201011202030000000, //49
#BPMCHANGE 203
#SCROLL 1
22102210,
#SCROLL 1.2
22102210,
#BPMCHANGE 225
#SCROLL 1.5
22102210,
#BPMCHANGE 250
#SCROLL 1.8
22102210, //53
#MEASURE 10/4
#SCROLL 2.1
3020202020202020
#BPMCHANGE 207
#SCROLL 2.6
22222210
#SCROLL 1
0000000000000000, //54
#MEASURE 4/4
#BPMCHANGE 103.5
#SCROLL 1.3
300000400000101001201100,
100000100000200000100000100000000010200000100100,
100000111110200000000000100010000010200010100000,
1020012010210120, //58
#MEASURE 17/16
#BPMCHANGE 129.38
#SCROLL 1.04
200200100100100
#BPMCHANGE 103.5
#SCROLL 1.3
200200111100200200111100100010222200,
#MEASURE 4/4
100000111100222200100000100000111111200000000000,
700000000000000000000000000080002010000400000000,
#BPMCHANGE 155
#SCROLL 1
100010101000100010101000200000000400000000400000, //62
0000
#GOGOSTART
001111022210,
100000100200000100200100
#GOGOEND
100100200000101010101010,
#GOGOSTART
2022102211221212,
1112111211121022, //66
100100100100000200100100100100200200202020202020,
1022112010221120,
100000200200100100202020200100200200100000200000,
100200200100200200101010200200101010202020100000,
1021012011120212,
100100200100100200100100200100101010200200100100,
2000000010002222, //73
100020002020100200000200100100200200100100200200,
101020101020100020002000100000200100000200200200,
102002101202101002101002,
101222101222101222111111,
202020101010202020101010200020100010200200100100,
200000100100200200100100202020201010101020201010,
2034,
102020102210200000
#SCROLL 4
300000, //81
#SCROLL 1
102220101220102220101120,
112211221121200000000000,
#GOGOEND
#MEASURE 5/4
0
#BPMCHANGE 6
#SCROLL 25.83
1000, //84
#END
COURSE:Oni
LEVEL:8
BALLOON:8,22,17
SCOREINIT:490,1620
SCOREDIFF:120
#START
3,
0,
1020220202202020,
2020220202022020,
1020220202202020,
111111111100,
#GOGOSTART
1020120212021000,
1020120212021000,
1020120212021000,
300300111100, //10
#GOGOEND
1000100010011000,
#MEASURE 3/4
100010011011,
#MEASURE 4/4
1011110022220020,
#MEASURE 3/4
110110202011,
#MEASURE 4/4
1000200010112010,
#MEASURE 3/4
101120201010,
#MEASURE 4/4
2000102010227000,
#MEASURE 3/4
000080300300, //18
#MEASURE 4/4
3,
1021021000101110,
3003003000000000,
1020102220202220,
1001001000102022,
1020102011112000,
1001001020101020,
1012101000101000,
1012102010121020,
1012102011201120,
111200111200,
111211200000, //30
#GOGOSTART
1111001111002210,
1002002010112020,
1022102010221020,
3434,
1111001111002010,
1020112010201120,
1020110222201020,
1021021021021120,
1021012010120210,
1021012010010000,
2034,
111122200000, //42
#GOGOEND
#BPMCHANGE 101.5
#SCROLL 1.8
3300000044000000,
#SCROLL 1.3
1221121012211210,
100200200100100200100200100200200100100200202020,
1021112010210120,
700000000000000000000000000000000000000800202020,
1010120000102012,
10102020101020201011100030000000, //49
#BPMCHANGE 203
#SCROLL 1
0101,
#SCROLL 1.2
0101,
#BPMCHANGE 225
#SCROLL 1.5
0101,
#BPMCHANGE 250
#SCROLL 1.8
0101, //53
#MEASURE 10/4
#SCROLL 2.1
600000000000000000000000000000000000000000000008
#BPMCHANGE 207
#SCROLL 0.8
000000000000000000300000
#SCROLL 1
000000000000000000000000000000000000000000000000, //54
#MEASURE 4/4
#BPMCHANGE 103.5
#SCROLL 1.3
3402,
1202,
100111200000000000200000,
1020012010210120,
#MEASURE 17/16
#BPMCHANGE 129.38
#SCROLL 1.04
100100100100100
#BPMCHANGE 103.5
#SCROLL 1.3
200200200000200200200000200010100000,
#MEASURE 4/4
11211020,
7000000000080400,
#BPMCHANGE 155
#SCROLL 1
100010001000100010001000200000000400000000400000, //62
0000
#GOGOSTART
001111002210,
10020020
#GOGOEND
11202010,
#GOGOSTART
1022102010221020,
3434, //66
1111001111002010,
1020112010201120,
1020110222201020,
1021021021021120,
1021012010120210,
1021012010202220,
1034, //73
1020120210222000,
200000200000200020002000200000200200000000000000,
101000100100101000100000,
101100101100101100100000,
200200200200202202200000,
1011101022201110,
2034,
111122200
#SCROLL 3
300, //81
#SCROLL 1
111200111200,
111211200000,
#GOGOEND
#MEASURE 5/4
0
#BPMCHANGE 6
#SCROLL 25.83
0000, //84
#END
COURSE:Hard
LEVEL:7
BALLOON:7,18,15
SCOREINIT:500,2100
SCOREDIFF:130
#START
3,
0,
1020220202202000,
2020220202022000,
1020220202202000,
500000000000000000000000000000000008000000000000,
#GOGOSTART
1010110101011000,
1010110101011000,
1010110101011000,
300300111100, //10
#GOGOEND
1000100010011000,
#MEASURE 3/4
100010011010,
#MEASURE 4/4
1122,
#MEASURE 3/4
100010202011,
#MEASURE 4/4
1000100010111010,
#MEASURE 3/4
101211,
#MEASURE 4/4
20121270,
#MEASURE 3/4
000080300300, //18
#MEASURE 4/4
3,
1001001000101010,
3003003000000000,
1010102220202020,
1001001000102020,
10121120,
1001001000101020,
1011101000101000,
1011101010111010,
1011101010001000,
111100222200,
111111100000, //30
#GOGOSTART
1111001111002010,
1002002010102020,
12101210,
3434,
1111001111000010,
12101210,
1020101011101020,
1001001001002000,
1001001020020020,
1001001010010000,
2034,
500000000000000008000000400000000000000000000000, //42
#GOGOEND
#BPMCHANGE 101.5
#SCROLL 1.8
3300000044000000,
#SCROLL 1.3
1122102012210220,
1220122012010022,
1020112010210120,
7000000000000800,
1010120000102010,
1122112210103000, //49
#BPMCHANGE 203
#SCROLL 1
0101,
#SCROLL 1.2
0101,
#BPMCHANGE 225
#SCROLL 1.4
0101,
#BPMCHANGE 250
#SCROLL 1.6
0101, //53
#MEASURE 10/4
#SCROLL 1.8
600000000000000000000000000000000000000000000008
#BPMCHANGE 207
#SCROLL 0.8
000000000000000000300000
#SCROLL 1
000000000000000000000000000000000000000000000000, //54
#MEASURE 4/4
#BPMCHANGE 103.5
#SCROLL 1.3
3402,
1202,
11200020,
1020012010210120, //58
#MEASURE 17/16
#BPMCHANGE 129.38
#SCROLL 1.04
500000008000000
#BPMCHANGE 103.5
#SCROLL 1.3
200000100000200000100000200000100000,
#MEASURE 4/4
11211020,
7000000000080400,
#BPMCHANGE 155
#SCROLL 1
500000000000000008000000200000000400000000400000, //62
0000
#GOGOSTART
001111002010,
10020020
#GOGOEND
10202010,
#GOGOSTART
12101210,
3434, //66
1111001111002010,
12101210,
1020101011101020,
1001001001002000,
1001001020020020,
1001001010101110,
1034, //73
2020200020222000,
2020200020220000,
10111010,
12121210,
500000000000000008000000200000200000200000000000,
1011101022202000,
2034,
111111100300, //81
111100222200,
111111100000,
#GOGOEND
#MEASURE 5/4
0
#BPMCHANGE 6
#SCROLL 25.83
0000, //84
#END
COURSE:Normal
LEVEL:5
BALLOON:12,10
SCOREINIT:650,3930
SCOREDIFF:190
#START
3,
0,
1202,
0202,
1212,
500000000000000000000000000000000008000000000000,
#GOGOSTART
1111,
1110,
1111,
3330, //10
#GOGOEND
11,
#MEASURE 3/4
101,
#MEASURE 4/4
12,
#MEASURE 3/4
100220,
#MEASURE 4/4
11,
#MEASURE 3/4
101,
#MEASURE 4/4
10020050,
#MEASURE 3/4
000008000000000000100000000100000000, //18
#MEASURE 4/4
1,
1001001000000000,
2002002000000000,
11102220,
1001001000000000,
1110,
1001001000101000,
10110100,
1111,
11101010,
1212,
3330, //30
#GOGOSTART
5008005008001000,
1002002000000000,
1111,
3434,
5008005008000000,
1112,
500000000000000000000000000008000000000000000000,
2002002000000000,
1001000020020000,
1001000010010000,
2034,
500000000000000000000008000000000000000000000000, //42
#GOGOEND
#BPMCHANGE 101.5
#SCROLL 1.8
300000000000600000080000,
#SCROLL 1.3
12201202,
1020102010010000,
1020102010110100,
7000000000000800,
1010010000102000,
1110111010103000, //49
#BPMCHANGE 203
#SCROLL 1
0101,
#SCROLL 1.2
0101,
#BPMCHANGE 225
#SCROLL 1.4
0101,
#BPMCHANGE 250
#SCROLL 1.6
0101, //53
#MEASURE 10/4
#SCROLL 1.8
600000000000000000000000000000000000000000000008
#BPMCHANGE 207
#SCROLL 0.8
000000000000000000300000
#SCROLL 1
000000000000000000000000000000000000000000000000, //54
#MEASURE 4/4
#BPMCHANGE 103.5
#SCROLL 1.3
3402,
1202,
1202,
12021202, //58
#MEASURE 17/16
#BPMCHANGE 129.38
#SCROLL 1.04
500000008000000
#BPMCHANGE 103.5
#SCROLL 1.3
400000000000400000000000200000000000,
#MEASURE 4/4
11201020,
7000000000080000,
#BPMCHANGE 155
#SCROLL 1
0000000020020020, //62
0000
#GOGOSTART
005008001000,
10020020
#GOGOEND
00000000,
#GOGOSTART
1111,
3434, //66
5008005008000000,
1112,
500000000000000000000000000008000000000000000000,
2002002000000000,
1001000020020000,
1001000010010000,
1034, //73
20202220,
2220,
2211,
2121,
500000000000000008000000200000000000200000000000,
10102220,
2034,
1113, //81
1212,
1140,
#GOGOEND
#MEASURE 5/4
0
#BPMCHANGE 6
#SCROLL 25.83
0000, //84
#END
COURSE:Easy
LEVEL:3
BALLOON:6,10,8,6
SCOREINIT:640,6980
SCOREDIFF:213
#START
0,
0,
1,
0,
11,
500000000000000000000000000008000000000000000000,
#GOGOSTART
1110,
11,
1110,
33, //10
#GOGOEND
1,
#MEASURE 3/4
1,
#MEASURE 4/4
12,
#MEASURE 3/4
1,
#MEASURE 4/4
1,
#MEASURE 3/4
1,
#MEASURE 4/4
1005,
#MEASURE 3/4
000008000000000000000000000000000000, //18
#MEASURE 4/4
3,
10010000,
20020000,
12,
10010000,
11,
10010000,
500000000000000000000000000008000000000000000000,
11,
1110,
11,
3330, //30
#GOGOSTART
5008005008000000,
10020000,
1110,
33,
5008005008000000,
1111,
500000000000000000000000000008000000000000700000,
000000000000000000000000000000080000000000000000,
3,
3,
2011,
500000000000000000000008000000000000000000000000, //42
#GOGOEND
#BPMCHANGE 101.5
#SCROLL 1.8
300000000000600000080000,
#SCROLL 1.3
22,
200000200000500000080000,
1001000010010000,
7000000000000800,
1000010000002000,
1113, //49
#BPMCHANGE 203
#SCROLL 1
0100,
#SCROLL 1.2
0100,
#BPMCHANGE 225
#SCROLL 1.4
0100,
#BPMCHANGE 250
#SCROLL 1.6
0100, //53
#MEASURE 10/4
#SCROLL 1.8
600000000000000000000000000000000000000000000008
#BPMCHANGE 207
#SCROLL 0.8
000000000000000000300000
#SCROLL 1
000000000000000000000000000000000000000000000000, //54
#MEASURE 4/4
#BPMCHANGE 103.5
#SCROLL 1.3
1202,
0202,
1202,
02020202, //58
#MEASURE 17/16
#BPMCHANGE 129.38
#SCROLL 1.04
10000
#BPMCHANGE 103.5
#SCROLL 1.3
400040002000,
#MEASURE 4/4
1212,
7000000000080000,
#BPMCHANGE 155
#SCROLL 1
0, //62
0000
#GOGOSTART
005008000000,
1002
#GOGOEND
0000,
#GOGOSTART
1111,
33, //66
5008005008000000,
1111,
500000000000000000000000000008000000000000700000,
000000000000000000000000000000080000000000000000,
3,
3,
1011, //73
22,
2220,
22,
2222,
500000000000000008000000000000000000000000000000,
1111,
1011,
1003, //81
11,
14,
#GOGOEND
#MEASURE 5/4
0
#BPMCHANGE 6
#SCROLL 25.83
0000,
#END