Files
TJA-by-song-no/tja/132.tja
2026-03-04 23:59:27 +09:00

419 lines
5.2 KiB
Plaintext

//TJADB Project
TITLE:Chiheisen no Aeolia
TITLEJA:地平線のエオリア
SUBTITLE:--K Masera feat. Natsumi (Silver Forest)
BPM:158
WAVE:Chiheisen no Aeolia.ogg
OFFSET:-1.807
DEMOSTART:53.413
COURSE:Oni
LEVEL:7
BALLOON:15,20,18
SCOREINIT:500
SCOREDIFF:110
#START
10210030,
0000002220101020,
10210030,
0000002220103000,
10210110,
2010001110200040,
00101012,
0020201022022030,
0010100110102010,
01101121,
0010100110102010,
11210213,
0010100110102010,
01101121,
0010100110102010,
02210240,
1010100110102010,
0010200220101020,
1010100110102010,
1002201000201030,
0011200220101020,
11220121,
1002201000107000,
0008,
1022201000103000,
0022201110102000,
1022201000103000,
0010100110102020,
1022201000103000,
0011200010222220,
1002201000102040,
0022222010102010,
0010100110101020,
1020104000222220,
#GOGOSTART
1010201110102010,
0010201110102010,
1022201000100030,
0022201000103000,
1010201110102010,
0010201110102010,
1022201000100030,
0022221000204000,
2010201110111020,
0010201110111020,
2011102010201050,
000000000000000008000000000000200000200000200000,
0010201110111020,
0010202000102030,
0010201110102030,
02230203,
#GOGOEND
01102201,
10220333,
0011100022200011,
1000222000222220,
#GOGOSTART
1010201110112010,
0010201110112010,
1022201000100030,
0022201000103000,
1010201110112010,
0010201110112010,
1022201000100030,
0022221000204000,
2010201122112010,
0010201122112010,
2010201110201020,
0020201122112010,
0010201122112010,
01221224,
0010100110102030,
02230207,
#GOGOEND
,
08,
01102201,
1000202000222220,
0010102010120110,
1020120120111020,
0010102010120110,
1120120111221122,
2211002000102000,
100000700000000000000000000000000000000000000008,
#END
COURSE:Hard
LEVEL:7
BALLOON:15
SCOREINIT:590
SCOREDIFF:158
#START
10010030,
00002110,
10010030,
00002110,
10210010,
21011204,
,
0020200022022010,
01101121,
01101001,
01101120,
10110222,
01101121,
01101121,
01101121,
01110220,
1000100110100010,
01210110,
1000100110100010,
10210011,
0022200010100010,
11210110,
10210030,
0,
10210110,
0022200010101000,
10210110,
0022200010101000,
10210030,
01001120,
02210221,
01101121,
01101121,
01030000,//34
#GOGOSTART
1000101110102010,
0010101110102010,
10210105,
000000000000000000000000000008000000000000000000,
1000101110102010,
0010101110102010,
10210105,
000000000000000000000000000008000000000000000000,
21212121,
01212121,
20210101,
0022202000111010,
01212121,
02210221,
0010101110102010,
0020201000111020,//50
#GOGOEND
01102201,
10220111,
01102201,
1000202000222000,//54
#GOGOSTART
1011101000102010,
0011101000102000,
10210101,
0022201000101000,
1011101000102010,
0011101000102000,
10210101,
0022221000202000,
21212121,
01212121,
20210101,
0022202000111010,
01212121,
02210221,
0010101110102010,
0020201000111070,//70
#GOGOEND
,
08,
01102201,
10220444,
0010102010020010,
10220122,
0010102010020010,
1000202011102220,
10020010,
03000000,
,
,
,
,
#END
COURSE:Normal
LEVEL:6
BALLOON:14,14
SCOREINIT:800,3950
SCOREDIFF:245
#START
#SCROLL 0.9
10010030,
0,
10010030,
0,
10020010,
02001003,
0,
03,
10101100,
01101000,
10101100,
10010010,
00101100,
10101107,
,
8,
1000100110000000,
01101000,
1000100110000000,
10010011,
0300,
22020000,
30030030,
,
10110050,
000000000000000000000000000008000000000000000000,
10110050,
000000000000000000000000000008000000000000000000,
10020010,
02001020,
01110115,
000000000000000000000000000008000000000000000000,
00202022,
02020000,//34
#GOGOSTART
11101001,
01101000,
20220205,
000000000000000000000000000008000000000000000000,
11101001,
01101000,
20220205,
000000000000000000000000000008000000000000000000,
21212000,
21212000,
21212005,
000000000000000000000000000008000000000000000000,
21212000,
21212001,
01101002,
02202000,//50
#GOGOEND
01101101,
10110000,
02202202,
20220000,//54
#GOGOSTART
11101001,
01101000,
20220205,
000000000000000000000000000008000000000000000000,
11101001,
01101000,
20220205,
000000000000000000000000000008000000000000000000,
21212000,
21212000,
21212005,
000000000000000000000000000008000000000000000000,
21212000,
21212001,
01101002,
02202007,//70
#GOGOEND
,
8,
01101101,
10110000,
01102201,
10220000,
01102201,
10220000,
20020020,
03000000,
,
,
,
,
#END
COURSE:Easy
LEVEL:4
BALLOON:10,8,10
SCOREINIT:700,6090
SCOREDIFF:238
#START
#SCROLL 0.9
10010010,
,
10010010,
,
10010010,
01000003,
,
,
1110,
0110,
1110,
0220,
0110,
10101007,
,
8,
1110,
0110,
1110,
10010005,
000000000000000000000008000000000000000000000000,
0202,
10010010,
,
3005,
000000000000000000000008000000000000000000000000,
4005,
000000000000000000000008000000000000000000000000,
10010010,
01001000,
02220005,
000000000000000000000008000000000000000000700000,
,
8,//34
#GOGOSTART
10110001,
00110000,
20220005,
000000000000000000000008000000000000000000000000,
10110001,
00110000,
20220005,
000000000000000000000008000000000000000000000000,
2220,
2220,
20202005,
000000000000000000000008000000000000000000000000,
2220,
2220,
0110,
00202005,//50
#GOGOEND
000000000000000000000000000000000000000000000008,
,
0220,
20220000,//54
#GOGOSTART
10110001,
00110000,
20220005,
000000000000000000000008000000000000000000000000,
10110001,
00110000,
20220005,
000000000000000000000008000000000000000000000000,
2220,
2220,
20202005,
000000000000000000000008000000000000000000000000,
2220,
2220,
0110,
00202007,//70
#GOGOEND
,
8,
0110,
10110000,
01101101,
10110000,
02202202,
20220000,
10010010,
01000000,
,
,
,
,
#END