334 lines
3.6 KiB
Plaintext
334 lines
3.6 KiB
Plaintext
//TJADB Project
|
|
TITLE:Lilac
|
|
TITLEJA:ライラック
|
|
SUBTITLE:--TV Anime "Oblivion Battery"
|
|
SUBTITLEJA:TVアニメ「忘却バッテリー」より
|
|
BPM:150
|
|
WAVE:Lilac.ogg
|
|
OFFSET:-0.884
|
|
DEMOSTART:51.840
|
|
|
|
//shinuchi: 11400/6510/4250/2230
|
|
|
|
COURSE:Oni
|
|
LEVEL:8
|
|
BALLOON:12
|
|
SCOREINIT:730,2280
|
|
SCOREDIFF:195
|
|
|
|
#START
|
|
2000200020020020,
|
|
0022202022202000,
|
|
20220222,
|
|
0000000020020000,
|
|
|
|
1022111010221110,
|
|
0011101011221010,
|
|
1010201110202010,
|
|
0110200110112210, //8
|
|
|
|
10210210,
|
|
0022101110201000,
|
|
10210210,
|
|
0022101110102020,
|
|
|
|
1001201001201000,
|
|
0022101110102020,
|
|
1001201100207000,
|
|
0000000000801110, //16
|
|
|
|
1000201110102000,
|
|
1022101110102020,
|
|
1000201110102000,
|
|
1022101110102020,
|
|
|
|
1110201110102000,
|
|
1022101110102020,
|
|
1110201110102000,
|
|
111111222222, //24
|
|
|
|
100101200100,
|
|
101100200101,
|
|
100111201101,
|
|
10102100,
|
|
|
|
101101101201,
|
|
122100122100,
|
|
100020002000100020002000100020002000100100100100,
|
|
1022222012221000, //32
|
|
|
|
#GOGOSTART
|
|
1010201112102010,
|
|
1110202111102010,
|
|
1110202111102000,
|
|
1110102010222222,
|
|
|
|
1010201112102010,
|
|
1110202111102000,
|
|
1022201112102010,
|
|
1110222011112020, //40
|
|
|
|
11600000,
|
|
000000000008000000100100100000100000200000200000,
|
|
11600000,
|
|
000000000000000008000000000000100100100100100000,
|
|
|
|
1110221110001110,
|
|
2211102011102010,
|
|
1110200010102010,
|
|
1000001110102020, //48
|
|
|
|
11600000,
|
|
000000000008000000100100100000100000200000200000,
|
|
11600000,
|
|
000000000000000008000000000000100100100100100000,
|
|
|
|
3010221110003010,
|
|
2211100110001020,
|
|
3010200210111111,
|
|
500000000000000000000008000000000000000000000000, //56
|
|
#GOGOEND
|
|
#END
|
|
|
|
|
|
COURSE:Hard
|
|
LEVEL:4
|
|
BALLOON:12,14,10,15
|
|
SCOREINIT:960,4530
|
|
SCOREDIFF:278
|
|
|
|
#START
|
|
20002002,
|
|
0220,
|
|
20020202,
|
|
02,
|
|
|
|
10101121,
|
|
01101120,
|
|
11210117,
|
|
00000008, //8
|
|
|
|
10210110,
|
|
01011020,
|
|
10210110,
|
|
00021110,
|
|
|
|
10210110,
|
|
00021110,
|
|
10110170,
|
|
00000008, //16
|
|
|
|
10210120,
|
|
01101120,
|
|
10210120,
|
|
00021120,
|
|
|
|
10210120,
|
|
00021120,
|
|
10210120,
|
|
70000008, //24
|
|
|
|
10112010,
|
|
11102020,
|
|
10112010,
|
|
12,
|
|
|
|
10121010,
|
|
12101010,
|
|
10121010,
|
|
3330, //32
|
|
|
|
#GOGOSTART
|
|
11221010,
|
|
10211010,
|
|
10211010,
|
|
10111000,
|
|
|
|
11221010,
|
|
10211020,
|
|
11211020,
|
|
11221010, //40
|
|
|
|
11600000,
|
|
000000000008000000000000200000200000200000000000,
|
|
1600,
|
|
000000000000000008000000000000000000000000000000,
|
|
|
|
11211011,
|
|
21101121,
|
|
11201121,
|
|
00002220, //48
|
|
|
|
11600000,
|
|
000000000008000000000000200000000000200000000000,
|
|
1600,
|
|
000000000000000008000000000000000000000000000000,
|
|
|
|
11211011,
|
|
21103011,
|
|
3700,
|
|
08, //56
|
|
#GOGOEND
|
|
#END
|
|
|
|
|
|
COURSE:Normal
|
|
LEVEL:4
|
|
BALLOON:8,9,9,10,10
|
|
SCOREINIT:1150,7180
|
|
SCOREDIFF:415
|
|
|
|
#START
|
|
20000002,
|
|
02,
|
|
20000002,
|
|
0,
|
|
|
|
10101001,
|
|
0122,
|
|
10110117,
|
|
00000008, //8
|
|
|
|
10010010,
|
|
01,
|
|
10010010,
|
|
01,
|
|
|
|
10010010,
|
|
01,
|
|
10010070,
|
|
00000008, //16
|
|
|
|
10010010,
|
|
0011,
|
|
10010010,
|
|
0011,
|
|
|
|
10010010,
|
|
0022,
|
|
20020070,
|
|
00000008, //24
|
|
|
|
1011,
|
|
0122,
|
|
1011,
|
|
1,
|
|
|
|
1011,
|
|
1111,
|
|
2222,
|
|
3330, //32
|
|
|
|
#GOGOSTART
|
|
11101010,
|
|
10111010,
|
|
10111010,
|
|
1110,
|
|
|
|
11101010,
|
|
10111010,
|
|
0111,
|
|
10111000, //40
|
|
|
|
1600,
|
|
000000000008000000000000200000000000200000000000,
|
|
1600,
|
|
000000000000000008000000000000000000000000000000,
|
|
|
|
10111010,
|
|
11101010,
|
|
7,
|
|
0822, //48
|
|
|
|
1600,
|
|
000000000008000000000000200000000000200000000000,
|
|
1600,
|
|
000000000000000008000000000000000000000000000000,
|
|
|
|
30111030,
|
|
11103010,
|
|
3700,
|
|
08, //56
|
|
#GOGOEND
|
|
#END
|
|
|
|
|
|
COURSE:Easy
|
|
LEVEL:3
|
|
BALLOON:10,6,6,8,10
|
|
SCOREINIT:1250,12400
|
|
SCOREDIFF:755
|
|
|
|
#START
|
|
2,
|
|
02,
|
|
2,
|
|
0,
|
|
|
|
1110,
|
|
0110,
|
|
7,
|
|
00000800, //8
|
|
|
|
1001,
|
|
0,
|
|
1001,
|
|
0,
|
|
|
|
1001,
|
|
0,
|
|
1007,
|
|
00000800, //16
|
|
|
|
1001,
|
|
01,
|
|
1001,
|
|
01,
|
|
|
|
1001,
|
|
02,
|
|
2007,
|
|
00000800, //24
|
|
|
|
1011,
|
|
01,
|
|
11,
|
|
1,
|
|
|
|
1011,
|
|
11,
|
|
22,
|
|
3330, //32
|
|
|
|
#GOGOSTART
|
|
1110,
|
|
1011,
|
|
11,
|
|
1110,
|
|
|
|
1110,
|
|
1011,
|
|
0111,
|
|
11, //40
|
|
|
|
1600,
|
|
000000000008000000000000000000000000000000000000,
|
|
1600,
|
|
000000000000000008000000000000000000000000000000,
|
|
|
|
1101,
|
|
1011,
|
|
7,
|
|
08000000, //48
|
|
|
|
1600,
|
|
000000000008000000000000000000000000000000000000,
|
|
1600,
|
|
000000000000000008000000000000000000000000000000,
|
|
|
|
1101,
|
|
1011,
|
|
7,
|
|
08, //56
|
|
#GOGOEND
|
|
#END |