792 lines
8.5 KiB
Plaintext
792 lines
8.5 KiB
Plaintext
//TJADB Project
|
|
TITLE:Hatsune Miku no Gekishou
|
|
TITLEJA:初音ミクの激唱
|
|
SUBTITLE:--cosMo@bousouP feat. Hatsune Miku
|
|
SUBTITLEJA:「初音ミク-Project DIVA-2nd」より
|
|
BPM:175.1
|
|
WAVE:Hatsune Miku no Gekishou.ogg
|
|
OFFSET:-1.322
|
|
DEMOSTART:38.580
|
|
|
|
COURSE:Edit
|
|
LEVEL:10
|
|
BALLOON:7,4,4
|
|
SCOREINIT:350
|
|
SCOREDIFF:85
|
|
|
|
|
|
#START
|
|
|
|
|
|
#SCROLL 1.1422044546
|
|
,
|
|
#BPMCHANGE 223
|
|
#SCROLL 0.89686098654
|
|
0
|
|
#BPMCHANGE 200
|
|
#SCROLL 1
|
|
3,
|
|
11,
|
|
22,
|
|
1022,
|
|
1022,
|
|
11,
|
|
22,
|
|
1022,
|
|
1111102210221020,
|
|
1110201110201020,
|
|
1110201110201020,
|
|
1110201110201020,
|
|
1110201111102000,
|
|
1110201110201020,
|
|
1110201110201020,
|
|
1110201110201020,
|
|
1110201111102000,
|
|
#MEASURE 3/4
|
|
33,
|
|
44,
|
|
33,
|
|
44,
|
|
#MEASURE 4/4
|
|
600000000000000000000000000000000008000000000000,
|
|
43,
|
|
1010202010102020,
|
|
1022102010102020,
|
|
1010202010102020,
|
|
1022102010102020,
|
|
1020112010210120,
|
|
1020112011112010,
|
|
2011201020112010,
|
|
2011201040003000,
|
|
1010222010102220,
|
|
1022102011112010,
|
|
1010222010102220,
|
|
1022102011112010,
|
|
1020112010210120,
|
|
1020112011112010,
|
|
2011201020112010,
|
|
2011201040003000,
|
|
#MEASURE 3/4
|
|
122,
|
|
122,
|
|
121,
|
|
200020001002,
|
|
212,
|
|
122,
|
|
102012,
|
|
122122,
|
|
122,
|
|
122,
|
|
100020001002,
|
|
200010002002,
|
|
212,
|
|
122,
|
|
122,
|
|
122,
|
|
#MEASURE 8/4
|
|
78,
|
|
#SCROLL 0.5
|
|
1000000020000011,
|
|
1000000020000011,
|
|
1000000020000011,
|
|
1000000020001011,
|
|
1010200010102011,
|
|
1010200010102011,
|
|
1010201110102011,
|
|
1010101022112211,
|
|
|
|
#GOGOSTART
|
|
#MEASURE 4/4
|
|
#SCROLL 1
|
|
111111111111,
|
|
111111111111,
|
|
222222222222,
|
|
222222222222,
|
|
|
|
#GOGOEND
|
|
1011201020112010,
|
|
#MEASURE 3/4
|
|
202210211010,
|
|
#MEASURE 4/4
|
|
1011201020112010,
|
|
#MEASURE 3/4
|
|
202210211010,
|
|
|
|
#GOGOSTART
|
|
#MEASURE 4/4
|
|
111222111222,
|
|
#MEASURE 3/4
|
|
122122111,
|
|
#MEASURE 4/4
|
|
222111222111,
|
|
211211211222,
|
|
|
|
#GOGOEND
|
|
1011201121012010,
|
|
1011201121012010,
|
|
1011201020112010,
|
|
2010221020102210,
|
|
7000000080000000,
|
|
|
|
#GOGOSTART
|
|
1111111111111111,
|
|
1111111111111111,
|
|
1111111111111111,
|
|
1111222211112222,
|
|
1111111111111111,
|
|
1111111111111111,
|
|
1111111122222222,
|
|
1111111122222222,
|
|
1111111111111111,
|
|
1111111111111111,
|
|
1111111111111111,
|
|
1111222211112222,
|
|
1111111111111111,
|
|
1111111111111111,
|
|
1111111122222222,
|
|
1111111122222222,
|
|
|
|
#GOGOEND
|
|
1010111010221020,
|
|
1022120210221020,
|
|
1010111010221020,
|
|
1022120210221020,
|
|
1020201121012010,
|
|
1020201121012010,
|
|
1010101010101010,
|
|
78,
|
|
|
|
#GOGOSTART
|
|
111100222200,
|
|
111100222200,
|
|
111100222200,
|
|
111100222200,
|
|
111111111111,
|
|
222222222222,
|
|
1111111122222222,
|
|
1111111122222222,
|
|
1111222211112222,
|
|
1111222212121212,
|
|
|
|
#GOGOEND
|
|
|
|
|
|
#END
|
|
|
|
|
|
COURSE:Oni
|
|
LEVEL:10
|
|
BALLOON:6,6,6,6,6,6,13,6
|
|
SCOREINIT:540
|
|
SCOREDIFF:125
|
|
|
|
|
|
#START
|
|
|
|
|
|
#SCROLL 1.1422044546
|
|
1,
|
|
#BPMCHANGE 223
|
|
#SCROLL 0.89686098654
|
|
4
|
|
#BPMCHANGE 200
|
|
#SCROLL 1
|
|
0,
|
|
11,
|
|
22,
|
|
2011,
|
|
1022,
|
|
21,
|
|
1000000020000022,
|
|
2011,
|
|
2220202020202020,
|
|
7008,
|
|
7008,
|
|
7008,
|
|
600000000000000008000000300000000000300000000000,
|
|
7008,
|
|
7008,
|
|
7008,
|
|
600000000000000008000000300000000000000000000000,
|
|
#MEASURE 3/4
|
|
33,
|
|
44,
|
|
33,
|
|
44,
|
|
#MEASURE 4/4
|
|
600000000000000000000000000000000000000008000000,
|
|
34,
|
|
10001002,
|
|
02222000,
|
|
10001002,
|
|
02222020,
|
|
1000000020020020,
|
|
21,
|
|
2000001110000022,
|
|
2000001110002000,
|
|
10001002,
|
|
02222000,
|
|
10001002,
|
|
02222020,
|
|
1000000020020020,
|
|
21,
|
|
2000001110000022,
|
|
2000001110002000,
|
|
#MEASURE 3/4
|
|
500000000000000000000008000000000000,
|
|
201,
|
|
111,
|
|
100010002002,
|
|
2,
|
|
500000000000000000000008000000000000,
|
|
500000000000000000000008000000100000,
|
|
111111,
|
|
122,
|
|
221,
|
|
100010002002,
|
|
200000001001,
|
|
112,
|
|
222,
|
|
111,
|
|
222,
|
|
#MEASURE 8/4
|
|
7000000000000800,
|
|
#SCROLL 0.5
|
|
1000000020000011,
|
|
1000000020000011,
|
|
1000000020000011,
|
|
1000000020001011,
|
|
1000000020000011,
|
|
1000000020000011,
|
|
1000000020000011,
|
|
14,
|
|
#MEASURE 4/4
|
|
#SCROLL 1
|
|
111111111111,
|
|
111111111111,
|
|
111111111111,
|
|
111111111111,
|
|
1111,
|
|
#MEASURE 3/4
|
|
222220,
|
|
#MEASURE 4/4
|
|
1111,
|
|
#MEASURE 3/4
|
|
222222,
|
|
#MEASURE 4/4
|
|
111111111111,
|
|
#MEASURE 3/4
|
|
111111111,
|
|
#MEASURE 4/4
|
|
111111111111,
|
|
111111111111,
|
|
100222,
|
|
2111,
|
|
2221,
|
|
7008,
|
|
34,
|
|
1111111111111111,
|
|
1111111111111111,
|
|
1111111111111111,
|
|
1111111111111111,
|
|
2222222222222222,
|
|
2222222222222222,
|
|
2222222222222222,
|
|
2222222222222222,
|
|
1111111111111111,
|
|
1111111111111111,
|
|
1111111111111111,
|
|
1111111111111111,
|
|
2222222222222222,
|
|
2222222222222222,
|
|
2222222222222222,
|
|
2222222222222222,
|
|
20000011,
|
|
12,
|
|
10002022,
|
|
21,
|
|
2012,
|
|
1212,
|
|
1,
|
|
43,
|
|
|
|
#GOGOSTART
|
|
111100222200,
|
|
111100222200,
|
|
111100222200,
|
|
111100222200,
|
|
111111111111,
|
|
111111111111,
|
|
1111111111111111,
|
|
1111111111111111,
|
|
1111111111111111,
|
|
1111111111111111,
|
|
|
|
#GOGOEND
|
|
|
|
|
|
#END
|
|
|
|
|
|
COURSE:Hard
|
|
LEVEL:7
|
|
BALLOON:5,5,5,5,5,5,11
|
|
SCOREINIT:620
|
|
SCOREDIFF:150
|
|
|
|
|
|
#START
|
|
|
|
|
|
#SCROLL 1.1422044546
|
|
1,
|
|
#BPMCHANGE 223
|
|
#SCROLL 0.89686098654
|
|
2
|
|
#BPMCHANGE 200
|
|
#SCROLL 1
|
|
0,
|
|
11,
|
|
11,
|
|
1022,
|
|
2022,
|
|
21,
|
|
11,
|
|
1022,
|
|
20222222,
|
|
7008,
|
|
7008,
|
|
7008,
|
|
1022,
|
|
7008,
|
|
7008,
|
|
7008,
|
|
500000000000000000000008000000000000000000000000,
|
|
#MEASURE 3/4
|
|
11,
|
|
22,
|
|
11,
|
|
22,
|
|
#MEASURE 4/4
|
|
500000000000000000000008000000000000000000000000,
|
|
12,
|
|
10001002,
|
|
0220,
|
|
10001002,
|
|
0222,
|
|
1000000010010010,
|
|
12,
|
|
10022001,
|
|
10022010,
|
|
10001002,
|
|
0220,
|
|
10001002,
|
|
0222,
|
|
2000000010010010,
|
|
12,
|
|
10022001,
|
|
10022010,
|
|
#MEASURE 3/4
|
|
500000000000000000000008000000000000,
|
|
102,
|
|
222,
|
|
221,
|
|
1,
|
|
500000000000000000000008000000000000,
|
|
500000000000000000000008000000100000,
|
|
122,
|
|
111,
|
|
222,
|
|
111,
|
|
201,
|
|
112,
|
|
222,
|
|
111,
|
|
122,
|
|
#MEASURE 8/4
|
|
7000000000000800,
|
|
#SCROLL 0.5
|
|
1000000020000011,
|
|
1000000020000011,
|
|
1000000020000011,
|
|
1000000020001011,
|
|
1000000020000011,
|
|
1000000020000011,
|
|
1000000020000011,
|
|
14,
|
|
#MEASURE 4/4
|
|
#SCROLL 1
|
|
1111,
|
|
1111,
|
|
1111,
|
|
1111,
|
|
2222,
|
|
#MEASURE 3/4
|
|
202220,
|
|
#MEASURE 4/4
|
|
2222,
|
|
#MEASURE 3/4
|
|
222,
|
|
#MEASURE 4/4
|
|
1111,
|
|
#MEASURE 3/4
|
|
111,
|
|
#MEASURE 4/4
|
|
1111,
|
|
1111,
|
|
100222,
|
|
2111,
|
|
2222,
|
|
2,
|
|
34,
|
|
11111111,
|
|
11111111,
|
|
11111111,
|
|
11111111,
|
|
11111111,
|
|
11111111,
|
|
11111111,
|
|
11111111,
|
|
11111111,
|
|
11111111,
|
|
11111111,
|
|
11111111,
|
|
11111111,
|
|
11111111,
|
|
11111111,
|
|
11111111,
|
|
10000022,
|
|
21,
|
|
10002022,
|
|
21,
|
|
1022,
|
|
2222,
|
|
2,
|
|
11,
|
|
|
|
#GOGOSTART
|
|
1111,
|
|
1111,
|
|
1111,
|
|
1111,
|
|
1111,
|
|
1111,
|
|
11111111,
|
|
11111111,
|
|
11111111,
|
|
11111111,
|
|
|
|
#GOGOEND
|
|
|
|
|
|
#END
|
|
|
|
|
|
COURSE:Normal
|
|
LEVEL:7
|
|
BALLOON:4,4,4,4,4,4,9
|
|
SCOREINIT:620
|
|
SCOREDIFF:158
|
|
|
|
|
|
#START
|
|
|
|
|
|
#SCROLL 1.1422044546
|
|
1,
|
|
#BPMCHANGE 223
|
|
#SCROLL 0.89686098654
|
|
2
|
|
#BPMCHANGE 200
|
|
#SCROLL 1
|
|
0,
|
|
11,
|
|
11,
|
|
1022,
|
|
2011,
|
|
12,
|
|
22,
|
|
2011,
|
|
0222,
|
|
7008,
|
|
7008,
|
|
7008,
|
|
2011,
|
|
7008,
|
|
7008,
|
|
7008,
|
|
500000000000000000000008000000000000000000000000,
|
|
#MEASURE 3/4
|
|
22,
|
|
11,
|
|
22,
|
|
11,
|
|
#MEASURE 4/4
|
|
500000000000000000000008000000000000000000000000,
|
|
22,
|
|
10001001,
|
|
0110,
|
|
20002002,
|
|
0222,
|
|
21,
|
|
11,
|
|
10022002,
|
|
20022020,
|
|
20002002,
|
|
0220,
|
|
10001001,
|
|
0111,
|
|
12,
|
|
22,
|
|
10011001,
|
|
10011010,
|
|
#MEASURE 3/4
|
|
1,
|
|
101,
|
|
111,
|
|
112,
|
|
2,
|
|
2,
|
|
2,
|
|
,
|
|
111,
|
|
111,
|
|
111,
|
|
102,
|
|
222,
|
|
222,
|
|
222,
|
|
222,
|
|
#MEASURE 8/4
|
|
7000000000000800,
|
|
#SCROLL 0.5
|
|
1000000010000022,
|
|
2000000010000022,
|
|
2000000010000022,
|
|
2000000010001022,
|
|
2000000010000022,
|
|
2000000010000022,
|
|
2000000010000022,
|
|
23,
|
|
#MEASURE 4/4
|
|
#SCROLL 1
|
|
1111,
|
|
1111,
|
|
1111,
|
|
1111,
|
|
11,
|
|
#MEASURE 3/4
|
|
111,
|
|
#MEASURE 4/4
|
|
11,
|
|
#MEASURE 3/4
|
|
111,
|
|
#MEASURE 4/4
|
|
1111,
|
|
#MEASURE 3/4
|
|
111,
|
|
#MEASURE 4/4
|
|
1111,
|
|
1111,
|
|
11,
|
|
11,
|
|
11,
|
|
1,
|
|
44,
|
|
1111,
|
|
1111,
|
|
1111,
|
|
1111,
|
|
1111,
|
|
1111,
|
|
1111,
|
|
1111,
|
|
1111,
|
|
1111,
|
|
1111,
|
|
1111,
|
|
1111,
|
|
1111,
|
|
1111,
|
|
1111,
|
|
10000022,
|
|
21,
|
|
10001011,
|
|
12,
|
|
2011,
|
|
1111,
|
|
1,
|
|
22,
|
|
|
|
#GOGOSTART
|
|
1111,
|
|
1111,
|
|
1111,
|
|
1111,
|
|
1111,
|
|
1111,
|
|
11111111,
|
|
11111111,
|
|
11111111,
|
|
11111111,
|
|
|
|
#GOGOEND
|
|
|
|
|
|
#END
|
|
|
|
|
|
COURSE:Easy
|
|
LEVEL:5
|
|
BALLOON:7,8,7
|
|
SCOREINIT:470
|
|
SCOREDIFF:130
|
|
|
|
|
|
#START
|
|
|
|
|
|
#SCROLL 1.1422044546
|
|
1,
|
|
#BPMCHANGE 223
|
|
#SCROLL 0.89686098654
|
|
1
|
|
#BPMCHANGE 200
|
|
#SCROLL 1
|
|
0,
|
|
11,
|
|
11,
|
|
11,
|
|
1011,
|
|
11,
|
|
11,
|
|
1011,
|
|
,
|
|
500000000000000000000000000000000000000000000008,
|
|
,
|
|
500000000000000000000000000000000000000000000008,
|
|
,
|
|
500000000000000000000000000000000000000000000008,
|
|
,
|
|
500000000000000000000000000000000000000000000008,
|
|
,
|
|
#MEASURE 3/4
|
|
11,
|
|
11,
|
|
11,
|
|
11,
|
|
#MEASURE 4/4
|
|
7,
|
|
08,
|
|
11,
|
|
01,
|
|
11,
|
|
01,
|
|
11,
|
|
11,
|
|
11,
|
|
11,
|
|
11,
|
|
01,
|
|
11,
|
|
01,
|
|
11,
|
|
11,
|
|
11,
|
|
11,
|
|
#MEASURE 3/4
|
|
1,
|
|
1,
|
|
101,
|
|
010,
|
|
1,
|
|
1,
|
|
1,
|
|
,
|
|
101,
|
|
010,
|
|
101,
|
|
,
|
|
101,
|
|
010,
|
|
101,
|
|
010,
|
|
#MEASURE 8/4
|
|
7000000000000800,
|
|
#SCROLL 0.5
|
|
11,
|
|
11,
|
|
11,
|
|
1011,
|
|
11,
|
|
11,
|
|
11,
|
|
13,
|
|
#MEASURE 4/4
|
|
#SCROLL 1
|
|
1111,
|
|
1111,
|
|
1111,
|
|
1111,
|
|
11,
|
|
#MEASURE 3/4
|
|
101,
|
|
#MEASURE 4/4
|
|
,
|
|
#MEASURE 3/4
|
|
111,
|
|
#MEASURE 4/4
|
|
1111,
|
|
#MEASURE 3/4
|
|
111,
|
|
#MEASURE 4/4
|
|
1111,
|
|
1111,
|
|
11,
|
|
11,
|
|
11,
|
|
7,
|
|
08,
|
|
1111,
|
|
1111,
|
|
1111,
|
|
1111,
|
|
1111,
|
|
1111,
|
|
1111,
|
|
1111,
|
|
1111,
|
|
1111,
|
|
1111,
|
|
1111,
|
|
1111,
|
|
1111,
|
|
1111,
|
|
1111,
|
|
1,
|
|
11,
|
|
11,
|
|
11,
|
|
11,
|
|
11,
|
|
1,
|
|
33,
|
|
|
|
#GOGOSTART
|
|
11,
|
|
11,
|
|
11,
|
|
11,
|
|
1111,
|
|
1111,
|
|
1111,
|
|
1111,
|
|
1111,
|
|
1111,
|
|
|
|
#GOGOEND
|
|
|
|
|
|
#END
|
|
|