Files
TJA-by-song-no/tja/139.tja
2026-03-04 23:59:27 +09:00

650 lines
6.6 KiB
Plaintext

//TJADB Project
TITLE:dance storm
TITLEJA:dance storm
SUBTITLE:--Shinji Hosoe (Sampling Masters)
BPM:190
WAVE:dance storm.ogg
OFFSET:-1.506
DEMOSTART:16.650
COURSE:Edit
LEVEL:9
SCOREINIT:420
SCOREDIFF:103
#START
4,
,
,
0002,
10210210,
2010002010200022,
10210210,
21002120,
10210210,
2010002010200022,
11211211,
21121040,//12
#GOGOSTART
1001201011202210,
1011202210112022,
1011201012202220,
01211212,
1001201011202210,
1011202210112022,
1011201012202220,
0010201010201111,//20
#GOGOEND
1000201000202022,
1000201000202022,
1000201110202010,
1000200010002022,
1020112010201120,
1020112010201120,
1110202011102020,
10103303,
0011201020102210,
0010102010222020,
0011201022102010,
0010102010222020,
0011201022102010,
0010102010222020,
0011201022102010,
000100100200101020101020,
1022102010112010,
0010102010222020,
0022102010112010,
0010102010222020,
0022102010112010,
0010102010222020,
1011202022101011,
2020221010112210,//44
#GOGOSTART
1022102011202120,
1022102022112010,
1022102011202120,
1022102022112000,
1022102011202120,
1022102022112010,
1022102011202120,
1022102040400000,
1022112011202120,
1022102022112010,
1022112011201210,
1022102022112000,
1022112011202120,
1022102011221020,
2210221022102210,
500000000000000008000000300000000000400000000000,//60
#GOGOEND
10210210,
2010002010200022,
10210210,
21002120,
10210210,
2010002010200022,
11211211,
#SCROLL 8
600000000000000000000000000000000008000000000000,//68
#SCROLL 1
#GOGOSTART
1001201011202210,
1011202210112022,
1011201012202220,
01211212,
1001201011202210,
1011202210112022,
1011201012202220,
0010201010201110,//76
#GOGOEND
1000201000202022,
1000201000202022,
1000201110202010,
1000200010002022,
1020112010201120,
1020112010201120,
1110202011102020,
10103303,//84
#GOGOSTART
0011201020102210,
0010102010222020,
0011201022102010,
0010102010222020,
0011201022102010,
0010102010222020,
31241231,
24123124,
12124334,
#SCROLL 8
6,
0,
000000000000000000000000000000000008000000000000,//96
#SCROLL 0.5
#GOGOEND
3,
#END
COURSE:Oni
LEVEL:7
BALLOON:11,49
SCOREINIT:350
SCOREDIFF:100
#START
3,
,
,
0000000000001111,
21121121,
12113404,
21121121,
12114340,
21121121,
12113404,
21121121,
1020101040001111,//12
#GOGOSTART
1000100210102010,
01211020,
10121222,
23030303,
1000100210102010,
01211020,
10121222,
23030303,//20
#GOGOEND
11021020,
11021020,
11021020,
11021020,
1020102010201022,
1020102010201022,
10021102,
30303303,
10210201,
0020202020202022,
10210201,
02222222,
10210201,
0020202020202022,
10210201,
000200200200202010202010,
11210201,
0020202020202022,
11210201,
02222222,
11210201,
02222222,
32232232,
23220303,//44
#GOGOSTART
1022102010221020,
1022102010221110,
1022102010221020,
1022101020001110,
1022102010221020,
1022102010221110,
1022102010221020,
1022101040400000,
1022102020112010,
1022102010221120,
1022102020112010,
1022101020001110,
1022102020112010,
1022102010221120,
1022102210221022,
1022101030004000,//60
#GOGOEND
21121121,
12113404,
21121121,
12114340,
21121121,
12113404,
21121121,
#SCROLL 8
07000080,//68
#SCROLL 1
#GOGOSTART
1000100210102010,
01211020,
10121222,
23030303,
1000100210102010,
01211020,
10121222,
23030303,//76
#GOGOEND
11021020,
11021020,
11021020,
11021020,
1020102010201022,
1020102010201022,
10021102,
30303303,//84
#GOGOSTART
11210201,
0020202020202022,
11210201,
02222222,
11210201,
0020202020202022,
11221211,
22121122,
12111122,
7,
,
0000000000800022,//96
#GOGOEND
1,
#END
COURSE:Hard
LEVEL:6
BALLOON:22,7,33
SCOREINIT:440
SCOREDIFF:100
#START
3,
,
,
,
30110110,
11011203,
30110110,
11011120,
30110110,
11011203,
30120210,
12014000,//12
#GOGOSTART
1000100110102000,
10101120,
10111121,
03030300,
1000100110102000,
10101120,
10111121,
03030303,//20
#GOGOEND
11021020,
11021020,
11021020,
1210,
12101210,
12101210,
12121210,
3330,
30110101,
02202220,
30110101,
02202220,
30110101,
02202220,
30110101,
000200200000101010100000,
30110101,
02202220,
30110101,
02202220,
30110101,
02202220,
30030030,
600000000000000000000000000008000000000000000000,//44
#GOGOSTART
1011101000111010,
0011101010002000,
1011101000111010,
0011101010000000,
1011101000111010,
0011101010002000,
1011101000111010,
0011101040000000,
1011102000111020,
0011102010002000,
1011102000111020,
0011102010000000,
1011102000111020,
0011102010002000,
7,
0008,//60
#GOGOEND
30110110,
11011203,
30110110,
11011120,
30110110,
11011203,
30120210,
#SCROLL 6
07000080,//68
#SCROLL 1
#GOGOSTART
1000100110102000,
10101120,
10111121,
03030300,
1000100110102000,
10101120,
10111121,
03030300,//76
#GOGOEND
11021020,
11021020,
11021020,
1210,
12101210,
12101210,
12121210,
3330,//84
#GOGOSTART
30110101,
02202220,
30110101,
02202220,
30110101,
02202220,
1110001110001110,
0011100011100011,
10303344,
7,
,
0000000000800022,//96
#GOGOEND
1,
,
,
,
#END
COURSE:Normal
LEVEL:6
BALLOON:16,5,24
SCOREINIT:420
SCOREDIFF:120
#START
3,
,
,
,
30030030,
03003000,
30030030,
03004000,
30030030,
03003000,
30030030,
000000600000000000000000000008000000000000000000,//12
#GOGOSTART
10101110,
10101110,
10110220,
03030300,
10101110,
10101110,
10110220,
03030300,//20
#GOGOEND
1021,
12,
1021,
12,
1212,
1212,
11,
3330,
30110101,
02222000,
30110101,
02222000,
30110101,
02222000,
30110101,
02222000,
30110101,
02222000,
30110101,
02222000,
30110101,
02222000,
30030030,
600000000000000000000000000008000000000000000000,//44
#GOGOSTART
10110220,
11022000,
10110220,
11022000,
10110220,
11022000,
10110220,
11024000,
10110220,
11022010,
10110220,
11022000,
10110220,
11022010,
7,
0008,//60
#GOGOEND
30030030,
03003000,
30030030,
03004000,
30030030,
03003000,
30030030,
#SCROLL 4
07000080,//68
#SCROLL 1
#GOGOSTART
10101110,
10101110,
10110220,
03030300,
10101110,
10101110,
10110220,
03030300,//76
#GOGOEND
1021,
1210,
1021,
1210,
1212,
1212,
11,
3330,//84
#GOGOSTART
30110101,
02222000,
30110101,
02222000,
30110101,
02222000,
30030030,
03003003,
00301110,
7,
,
00000800,//96
#GOGOEND
,
,
,
,
#END
COURSE:Easy
LEVEL:4
BALLOON:13,4,19
SCOREINIT:390
SCOREDIFF:100
#START
3,
,
,
,
3003,
03,
3003,
04,
3003,
03,
30030030,
000000600000000000000000000008000000000000000000,//12
#GOGOSTART
1110,
1110,
1100,
3,
1110,
1110,
1100,
3,//20
#GOGOEND
12,
1110,
12,
1110,
1212,
1212,
11,
3330,
3,
20222000,
3,
20222000,
3,
20222000,
3,
000000000000500000000000000008000000000000000000,
3,
20222000,
3,
20222000,
3,
20222000,
30030030,
600000000000000000000000000008000000000000000000,//44
#GOGOSTART
1212,
1210,
1212,
1210,
1212,
1210,
1212,
1240,
1212,
1210,
1212,
1210,
1212,
1210,
7,
0008,//60
#GOGOEND
3003,
03,
3003,
04,
3003,
03,
30030030,
#SCROLL 4
07000080,//68
#SCROLL 1
#GOGOSTART
1110,
1110,
1100,
3,
1110,
1110,
1100,
3,//76
#GOGOEND
12,
1110,
12,
1110,
1212,
1212,
11,
3330,//84
#GOGOSTART
3,
20222000,
3,
20222000,
3,
20222000,
3003,
03,
00301110,
7,
,
00000800,//96
#GOGOEND
,
,
,
,
#END