Files
TJA-by-song-no/tja/1408.tja
2026-03-04 23:59:27 +09:00

471 lines
4.3 KiB
Plaintext

//TJADB Project
TITLE:Bai Bai FIGHT!
TITLEJA:倍倍FIGHT!
SUBTITLE:--CANDY TUNE
SUBTITLEJA:CANDY TUNE
BPM:176
WAVE:Bai Bai FIGHT.ogg
OFFSET:-2.161
DEMOSTART:0.805
//shinuchi: 6770/3960/2580/1490
COURSE:Oni
LEVEL:7
BALLOON:10,11
SCOREINIT:460,1590
SCOREDIFF:115
#START
500000000008000000100000100100100000100000100000,
1110101011101000,
500000000008000000200000200200200000200000200000,
2220202022202000,
500000000008000000100000100100100000100000100000,
1110101011101000,
500000000008000000200000200200200000200000200000,
40404440, //8
1110202011102020,
1110201120001000,
2210202022102020,
1110201120001000,
1110202011102020,
1110201120001000,
2210202022102020,
1110201110002000, //16
10222222,
11222010,
2220202011101010,
2220201010112000,
12221122,
12221010,
2220202011101010,
2220101040004000, //24
10221202,
10221020,
12221022,
10214040,
10222022,
20222010,
30221122,
1011102010111020,
70000081,
0010221040004000, //34
#GOGOSTART
1120112011112020,
1111201120004000,
1011202010221020,
1122102010404000,
1120112011112020,
1111201120004000,
1011202010221020,
1122102010001110, //42
1020222020201110,
1020222020201010,
1110111011101111,
2000101120102000,
3000300011103000,
100100100000300000000000600000000008000000000000, //48
#GOGOEND
1110202011102020,
1110201120001000,
2210202022102020,
1110201120001000,
1110202011102020,
1110201120001000,
2210202022102020,
1110201110002000, //56
10202220,
12202000,
10222220,
12222000,
10101110,
11101020,
10101111,
#MEASURE 2/4
10111010,
#MEASURE 4/4
70000008,
1020112000104000, //66
#GOGOSTART
1120112011112020,
1111201120004000,
1011202010221020,
1122102010404000,
1120112011112020,
1111201120004000,
1011202010221020,
1122102010001110, //74
3020222020201110,
3020222020201010,
1110111011101111,
2000101120102000,
3000300011103000,
100100100000300000000000600000000008000000000000,
#GOGOEND
0, //81
#END
COURSE:Hard
LEVEL:5
BALLOON:9,10,10
SCOREINIT:610,2940
SCOREDIFF:160
#START
1011,
10101110,
2022,
20202220,
1011,
10101110,
2022,
70000008, //8
11101110,
11112000,
22201110,
11112000,
11101110,
11112000,
22201110,
11112000, //16
1022,
1220,
22201110,
10111000,
1211,
10111000,
22201110,
10111000, //24
10011020,
1220,
10011020,
1220,
12,
22,
30303330,
30303333,
9009,
8, //34
#GOGOSTART
11101120,
11101040,
10201121,
11211000,
11101120,
11101040,
10201121,
11211011, //42
12202011,
12202011,
600000000000000000000000000000000008000000000000,
10111010,
30303330,
300000300000300000000000600000000008000000000000, //48
#GOGOEND
11101110,
11112000,
22201110,
11112000,
11101110,
11112000,
22201110,
11112000, //56
22,
2220,
22,
2220,
12,
1220,
21,
#MEASURE 2/4
11,
#MEASURE 4/4
9009,
8, //66
#GOGOSTART
11101120,
11101040,
10201121,
11211000,
11101120,
11101040,
10201121,
11211033, //74
32202033,
32202011,
600000000000000000000000000000000008000000000000,
10111010,
30303330,
300000300000300000000000600000000008000000000000,
#GOGOEND
0, //81
#END
COURSE:Normal
LEVEL:3
BALLOON:12,7,7
SCOREINIT:620,4630
SCOREDIFF:178
#START
11,
1110,
22,
2220,
11,
1110,
7,
00000008, //8
1110,
10111000,
2220,
10111000,
1110,
10111000,
2220,
10111000, //16
1,
1,
11,
1110,
12,
12,
11,
1110, //24
1,
22,
1,
22,
1,
2,
33,
30303033,
9009,
8, //34
#GOGOSTART
10101110,
1110,
10101110,
1210,
10101110,
1110,
10101110,
10201011, //42
10000022,
2001,
6,
000000000000000000000000000000000008000000000000,
30303330,
3330, //48
#GOGOEND
1110,
10111000,
2220,
10111000,
1110,
10111000,
2220,
10111000, //56
22,
2220,
22,
2220,
12,
2220,
21,
#MEASURE 2/4
11,
#MEASURE 4/4
9009,
8, //66
#GOGOSTART
10101110,
1110,
10101110,
1210,
10101110,
1110,
10101110,
10201033, //74
30000044,
4001,
6,
000000000000000000000000000000000008000000000000,
30303330,
3330,
#GOGOEND
0, //81
#END
COURSE:Easy
LEVEL:3
BALLOON:9,6,6
SCOREINIT:720,8030
SCOREDIFF:283
#START
1,
1,
2,
2,
1,
1,
7,
00000800, //8
11,
12,
11,
1,
11,
12,
11,
1, //16
1,
0,
11,
1,
1,
1,
11,
1, //24
1,
2,
1,
2,
1,
0,
33,
3033,
9009,
8, //34
#GOGOSTART
11,
1110,
11,
1110,
11,
1110,
11,
1111, //42
1002,
2001,
6,
000000000000000000000000000008000000000000000000,
3033,
33, //48
#GOGOEND
11,
12,
11,
1,
11,
12,
11,
1, //56
2,
2,
2,
2,
22,
22,
21,
#MEASURE 2/4
1,
#MEASURE 4/4
9009,
8, //66
#GOGOSTART
11,
1110,
11,
1110,
11,
1110,
11,
1113, //74
3004,
4001,
6,
000000000000000000000000000008000000000000000000,
3033,
33,
#GOGOEND
0, //81
#END