Files
TJA-by-song-no/tja/274.tja
2026-03-04 23:59:27 +09:00

526 lines
6.0 KiB
Plaintext
Raw Blame History

This file contains ambiguous Unicode characters
This file contains Unicode characters that might be confused with other characters. If you think that this is intentional, you can safely ignore this warning. Use the Escape button to reveal them.
//TJADB Project
TITLE:Chikuzei GEAR UP
TITLEJA:蓄勢
SUBTITLE:--ZZAN Shin-way
SUBTITLEJA:GEAR UP
BPM:146
WAVE:Chikuzei GEAR UP.ogg
OFFSET:-1.903
DEMOSTART:15.052
COURSE:Edit
LEVEL:8
SCOREINIT:400
SCOREDIFF:100
#START
1022101000102022,
1022101000102022,
1022101000102022,
1101102000202220,
1022101000102022,
1022101000102022,
1022101000102000,
2220002220202220,
1110201111102000,
1110201111102000,
1010201110102011,
1010201110102010,
1110201111102000,
1110201111102000,
1010201110102011,
2011201120112020,
1010201110102011,
1010201110112110,
1010201110102011,
2011201120112010,
1010201110102011,
1010201110112110,
1010201110102011,
2011201120112010,
1221,
1221,
1221,
1020111020112000,
1221,
1221,
12221222,
1122201122201000,
#GOGOSTART
1011201110112011,
1011201110112210,
1011201110112011,
2011201120112210,
1011201110112011,
1011201110112210,
1011202210112022,
1011202210112210,
1000101120100011,
1010101120100011,
1000101120100011,
11223333,
1010202011221020,
1010202011221122,
11222111,
1022102020101020,
#GOGOEND
1022101000102022,
1022101000102022,
1022101000102022,
1101102000202220,
1022101000102022,
1022101000102022,
1022101000102000,
33030330,
#GOGOSTART
1011201110112011,
1011201110112210,
1011201110112011,
2011201120112210,
1011201110112011,
1011201110112210,
1011202210112022,
1011202210112210,
1000101120100011,
1010101120100011,
1000101120100011,
11223333,
1010202011221020,
1010202011221122,
11222111,
1022102020101020,
1110201111102000,
1110201111102000,
1010201110102011,
1010201110102010,
1110201111102000,
1110201111102000,
1010201110102011,
2011201120112020,
500000000000000000000000000000000000000000000008,
#GOGOEND
#END
COURSE:Oni
LEVEL:7
SCOREINIT:440
SCOREDIFF:113
#START
10210020,
10210020,
10210020,
1101201000002000,
1011201000102000,
1011201000102000,
1011201000102000,
2020002000202210,
1111202010102000,
1122102010102000,
11212112,
1022102010102020,
1111202010102000,
1122102010102000,
11212112,
1022202010102020,
1000201110201020,
1000201110102020,
1000201110201022,
1010201000102022,
1000201110201020,
1000201110102020,
1000201110201022,
11210122,
1011202010201020,
1011202010201020,
1011202010201020,
1011202011112020,
1011202010201120,
1011202010201120,
1111202022221020,
30030030,
#GOGOSTART
1010202210111020,
1011102210102000,
1010202210201022,
1011102210101000,
1010202210111020,
1011102210102020,
1011202210112022,
12120000,
1110100020001020,
40112102,
30201012,
11234444,
1011202010201120,
1011202010201120,
1111202022221020,
1012101020101120,
#GOGOEND
30210020,
10210020,
10210020,
1011201000002000,
1011201000102000,
1011201000102000,
1011201000102000,
3030004000402220,
#GOGOSTART
1010202210111020,
1011102210102000,
1010202210201022,
1011102210101000,
1010202210111020,
1011102210102020,
1011202210112022,
12120000,
1110100020001020,
40112102,
30201012,
11234444,
1011202010201120,
1011202010201120,
1111202022221020,
1012101020101120,
1111202010102000,
1122102010102000,
11212112,
1022102010102020,
1111202010102000,
1122102010102000,
11212112,
1022202010102020,
500000000000000000000000000000000000000000000008,
#GOGOEND
#END
COURSE:Hard
LEVEL:6
BALLOON:15,15
SCOREINIT:470
SCOREDIFF:113
#START
1202,
1202,
1202,
10210020,
11210120,
11210120,
11210120,
22020220,
11221210,
11221120,
11212112,
1022202010102000,
11221210,
11221120,
11212212,
1022202010102020,
1000201110102000,
1000201110102020,
1000201110102000,
11210120,
1000201110102000,
1000201110102020,
1000201110102000,
11210122,
11021212,
11021122,
11021212,
11021122,
11021212,
11021122,
11221122,
30030030,//32
#GOGOSTART
11121122,
1011101010102000,
11121122,
1011101010202000,
11121122,
1011101010102020,
10201022,
12120000,
10102011,
20112102,
1217,
0008,
11221212,
11221122,
11221122,
1011101010102020,//48
#GOGOEND
1202,
1202,
1202,
10210020,
11210120,
11210120,
11210120,
33040440,//56
#GOGOSTART
11121122,
1011101010102000,
11121122,
1011101010202000,
11121122,
1011101010102020,
10201022,
12120000,
10102011,
20112102,
1217,
0008,
11221212,
11221122,
11221122,
1011101010101020,
11221210,
11221120,
11212112,
1022202010102020,
11221210,
11221120,
11212212,
1022202010102020,
5000000000000000000000000000000000000000000000000000000000000008,//81
#GOGOEND
,
,
,
,
,
,
#END
COURSE:Normal
LEVEL:5
BALLOON:11,11
#START
1202,
0202,
0202,
0202,
1202,
1202,
1202,
4,
10101110,
10101110,
1120,
1120,
10101110,
10101110,
1122,
5000000000000000000000000000000000000000000000080000000000000000,
10201100,
10201100,
1212,
5000000000000000000000000000000000000000000000080000000000000000,
10201100,
10201100,
1212,
12,
11002000,
11002020,
11002000,
11004040,
11002000,
11002020,
11001100,
5000000000000000000000000000000000000000000000080000000000000000,//32
#GOGOSTART
11101010,
11101000,
11101010,
11102000,
11101010,
11101000,
1212,
1100,
1120,
2120,
1127,
0008,
10101110,
10101110,
11101110,
11101010,//48
#GOGOEND
1202,
0202,
0202,
0202,
1202,
1202,
1202,
5000000000000000000000000000000000000000000000080000000000000000,//56
#GOGOSTART
11101010,
11101000,
11101010,
11102000,
11101010,
11101000,
1212,
1100,
1120,
2120,
1127,
0008,
10101110,
10101110,
11101110,
11101010,
10101110,
10101110,
1120,
1120,
10101110,
10101110,
1122,
1212,
5000000000000000000000000000000000000000000000000000000000000008,//81
#GOGOEND
,
,
,
,
,
,
#END
COURSE:Easy
LEVEL:3
BALLOON:7,7
#START
,
,
,
,
0202,
0202,
0202,
4,
1011,
1011,
12,
12,
1011,
1011,
12,
5000000000000000000000000000000000000008000000000000000000000000,
1210,
1210,
11,
5000000000000000000000000000000000000008000000000000000000000000,
1210,
1210,
11,
12,
3,
3,
3,
34,
3,
3,
33,
6000000000000000000000000000000000000008000000000000000000000000,//32
#GOGOSTART
1110,
1120,
1110,
2220,
1110,
1120,
1111,
1100,
12,
22,
1027,
0008,
3,
3,
33,
33,//48
#GOGOEND
5000000000000000000000000000000000000000000000000000000000000008,
,
,
,
1202,
0202,
0202,
3,//56
#GOGOSTART
1110,
1120,
1110,
2220,
1110,
1120,
1111,
1100,
12,
22,
1027,
0008,
3,
3,
33,
33,
1011,
1011,
12,
12,
1011,
1011,
12,
1111,
5000000000000000000000000000000000000000000000000000000000000008,//81
#GOGOEND
,
,
,
,
,
,
#END