479 lines
5.6 KiB
Plaintext
479 lines
5.6 KiB
Plaintext
//TJADB Project
|
|
TITLE:Bad Apple‼
|
|
TITLEJA:Bad Apple!! feat.nomico
|
|
SUBTITLE:--Alstroemeria Records feat. nomico/Touhou Project
|
|
BPM:138
|
|
WAVE:Bad Apple!!.ogg
|
|
OFFSET:-1.326
|
|
DEMOSTART:29.142
|
|
|
|
COURSE:Oni
|
|
LEVEL:8
|
|
SCOREINIT:570
|
|
SCOREDIFF:130
|
|
|
|
|
|
#START
|
|
|
|
|
|
1000100010001111,
|
|
10101011,
|
|
1020100010201111,
|
|
12101211,
|
|
1020100010201111,
|
|
12101211,
|
|
1020100010201111,
|
|
500000000000000000000000000008000000400000000000,
|
|
1002022210020222,
|
|
1002022210221022,
|
|
1002022210020222,
|
|
1002022210221022,
|
|
1002022210020222,
|
|
1002022210221022,
|
|
1002022210020222,
|
|
100000000200000200200200100010001000100010001000,
|
|
11111022,
|
|
1000202010221022,
|
|
11111022,
|
|
1000202010221022,
|
|
11111022,
|
|
1000202010221022,
|
|
11111022,
|
|
300300111111,
|
|
11211022,
|
|
1022102010222020,
|
|
11211022,
|
|
1022102010222020,
|
|
11211022,
|
|
1022102010222020,
|
|
11211022,
|
|
3344,
|
|
|
|
#GOGOSTART
|
|
1020102010222020,
|
|
1020102010222020,
|
|
1022102010122020,
|
|
1022102210002020,
|
|
1020102010222020,
|
|
1020102010222020,
|
|
1022102010122020,
|
|
100000200200100000200200100010001000200010001000,
|
|
1022102010211020,
|
|
1022102022122020,
|
|
1022102010211020,
|
|
1022102022122020,
|
|
1022102210221021,
|
|
1022102210001020,
|
|
1221122112211221,
|
|
100200100200100200100200100010001000200010001000,
|
|
|
|
#GOGOEND
|
|
#BPMCHANGE 135.75
|
|
#SCROLL 1.02
|
|
10022021,
|
|
#BPMCHANGE 138.04
|
|
#SCROLL 1
|
|
10022012,
|
|
#BPMCHANGE 135.78
|
|
#SCROLL 1.02
|
|
10022021,
|
|
#BPMCHANGE 141.83
|
|
#SCROLL 0.97
|
|
10022012,
|
|
#BPMCHANGE 137.13
|
|
#SCROLL 1.01
|
|
1000002220002010,
|
|
#BPMCHANGE 137.58
|
|
#SCROLL 1
|
|
1000002220001020,
|
|
#BPMCHANGE 138.27
|
|
1000002220002010,
|
|
#BPMCHANGE 137.13
|
|
#SCROLL 1.01
|
|
1000202220001020,
|
|
|
|
#GOGOSTART
|
|
#BPMCHANGE 139.56
|
|
#SCROLL 0.99
|
|
100200100100202020200100,
|
|
#BPMCHANGE 138
|
|
#SCROLL 1
|
|
100200100100202020200100,
|
|
#BPMCHANGE 139.13
|
|
#SCROLL 0.99
|
|
100200100100202020200100,
|
|
#BPMCHANGE 136.89
|
|
#SCROLL 1.01
|
|
100200100100202020200100,
|
|
#BPMCHANGE 137.48
|
|
#SCROLL 1
|
|
100200200100102020100100,
|
|
#BPMCHANGE 138.53
|
|
200200100100202010100200,
|
|
#BPMCHANGE 139.15
|
|
#SCROLL 0.99
|
|
21122112,
|
|
|
|
#GOGOEND
|
|
#BPMCHANGE 138
|
|
#SCROLL 1
|
|
2033,
|
|
3,
|
|
|
|
|
|
#END
|
|
|
|
|
|
COURSE:Hard
|
|
LEVEL:6
|
|
SCOREINIT:560
|
|
SCOREDIFF:155
|
|
|
|
|
|
#START
|
|
|
|
|
|
1000100010001011,
|
|
10101011,
|
|
1000100010001011,
|
|
10101011,
|
|
1020100010001011,
|
|
12101011,
|
|
1020100010201011,
|
|
500000000000000000000000000008000000400000000000,
|
|
1002022010020220,
|
|
1002022010001000,
|
|
1002022010020220,
|
|
100000000200000200200000500000000008000000000000,
|
|
1002022010020220,
|
|
1002022010001000,
|
|
1002022010020220,
|
|
100000000200000200200000500000000008000000000000,
|
|
11111022,
|
|
1000202010222020,
|
|
11111022,
|
|
1000202010222020,
|
|
11111022,
|
|
1000202010222020,
|
|
11111022,
|
|
3344,
|
|
11211022,
|
|
1000202010222020,
|
|
11211022,
|
|
1000202010222020,
|
|
11211022,
|
|
1000202010222020,
|
|
11211022,
|
|
3344,
|
|
|
|
#GOGOSTART
|
|
1020101110002020,
|
|
1020101110002020,
|
|
1011101010002020,
|
|
1011101010002020,
|
|
1020101110002020,
|
|
1020101110002020,
|
|
1011101010002020,
|
|
300000000000300000000000600000000008000000000000,
|
|
12121012,
|
|
12121012,
|
|
1011102010001020,
|
|
1011102010001020,
|
|
1020102010111020,
|
|
1020102010111020,
|
|
1110222011102220,
|
|
300000000000300000000000600000000008000000000000,
|
|
|
|
#GOGOEND
|
|
#BPMCHANGE 135.75
|
|
#SCROLL 1.02
|
|
10022020,
|
|
#BPMCHANGE 138.04
|
|
#SCROLL 1
|
|
10022020,
|
|
#BPMCHANGE 135.78
|
|
#SCROLL 1.02
|
|
10022020,
|
|
#BPMCHANGE 141.83
|
|
#SCROLL 0.97
|
|
10022020,
|
|
#BPMCHANGE 137.13
|
|
#SCROLL 1.01
|
|
10022012,
|
|
#BPMCHANGE 137.58
|
|
#SCROLL 1
|
|
10022012,
|
|
#BPMCHANGE 138.27
|
|
10022022,
|
|
#BPMCHANGE 137.13
|
|
#SCROLL 1.01
|
|
10022022,
|
|
|
|
#GOGOSTART
|
|
#BPMCHANGE 139.56
|
|
#SCROLL 0.99
|
|
1000002220001010,
|
|
#BPMCHANGE 138
|
|
#SCROLL 1
|
|
1000002220001010,
|
|
#BPMCHANGE 139.13
|
|
#SCROLL 0.99
|
|
1000002220001010,
|
|
#BPMCHANGE 136.89
|
|
#SCROLL 1.01
|
|
1000202220002020,
|
|
#BPMCHANGE 137.48
|
|
#SCROLL 1
|
|
1000202220002020,
|
|
#BPMCHANGE 138.53
|
|
1000202220002020,
|
|
#BPMCHANGE 139.15
|
|
#SCROLL 0.99
|
|
1011101020222020,
|
|
|
|
#GOGOEND
|
|
#BPMCHANGE 138
|
|
#SCROLL 1
|
|
1033,
|
|
3,
|
|
|
|
|
|
#END
|
|
|
|
|
|
COURSE:Normal
|
|
LEVEL:5
|
|
BALLOON:6
|
|
SCOREINIT:620
|
|
SCOREDIFF:190
|
|
|
|
|
|
#START
|
|
|
|
|
|
1001,
|
|
10000011,
|
|
1001,
|
|
10000011,
|
|
1201,
|
|
10200011,
|
|
1201,
|
|
7008,
|
|
1012,
|
|
1011,
|
|
3012,
|
|
1011,
|
|
3210,
|
|
1011,
|
|
3210,
|
|
1133,
|
|
11111000,
|
|
10101110,
|
|
11111000,
|
|
10101110,
|
|
11111000,
|
|
10101110,
|
|
11111000,
|
|
3333,
|
|
11111000,
|
|
10102220,
|
|
11111000,
|
|
10102220,
|
|
11111000,
|
|
10102220,
|
|
11111000,
|
|
3333,
|
|
|
|
#GOGOSTART
|
|
11102000,
|
|
11102000,
|
|
11102020,
|
|
11112000,
|
|
11202000,
|
|
11202000,
|
|
11202020,
|
|
11222000,
|
|
3131,
|
|
4242,
|
|
3333,
|
|
4440,
|
|
11111030,
|
|
22222040,
|
|
3333,
|
|
500000000000000000000000000008000000000000000000,
|
|
|
|
#GOGOEND
|
|
#BPMCHANGE 135.75
|
|
#SCROLL 1.02
|
|
10011000,
|
|
#BPMCHANGE 138.04
|
|
#SCROLL 1
|
|
10011000,
|
|
#BPMCHANGE 135.78
|
|
#SCROLL 1.02
|
|
10011020,
|
|
#BPMCHANGE 141.83
|
|
#SCROLL 0.97
|
|
11102000,
|
|
#BPMCHANGE 137.13
|
|
#SCROLL 1.01
|
|
10011000,
|
|
#BPMCHANGE 137.58
|
|
#SCROLL 1
|
|
10011000,
|
|
#BPMCHANGE 138.27
|
|
10011020,
|
|
#BPMCHANGE 137.13
|
|
#SCROLL 1.01
|
|
11103000,
|
|
|
|
#GOGOSTART
|
|
#BPMCHANGE 139.56
|
|
#SCROLL 0.99
|
|
11111000,
|
|
#BPMCHANGE 138
|
|
#SCROLL 1
|
|
12111000,
|
|
#BPMCHANGE 139.13
|
|
#SCROLL 0.99
|
|
11111000,
|
|
#BPMCHANGE 136.89
|
|
#SCROLL 1.01
|
|
12111000,
|
|
#BPMCHANGE 137.48
|
|
#SCROLL 1
|
|
11111020,
|
|
#BPMCHANGE 138.53
|
|
11111020,
|
|
#BPMCHANGE 139.15
|
|
#SCROLL 0.99
|
|
12111011,
|
|
|
|
#GOGOEND
|
|
#BPMCHANGE 138
|
|
#SCROLL 1
|
|
1033,
|
|
3,
|
|
|
|
|
|
#END
|
|
|
|
|
|
COURSE:Easy
|
|
LEVEL:3
|
|
BALLOON:5
|
|
SCOREINIT:470
|
|
SCOREDIFF:163
|
|
|
|
|
|
#START
|
|
|
|
|
|
1001,
|
|
1001,
|
|
1001,
|
|
1001,
|
|
1201,
|
|
1201,
|
|
1201,
|
|
7008,
|
|
11,
|
|
1011,
|
|
31,
|
|
1011,
|
|
32,
|
|
1011,
|
|
32,
|
|
1033,
|
|
11,
|
|
1011,
|
|
11,
|
|
1111,
|
|
12,
|
|
1011,
|
|
12,
|
|
3333,
|
|
11,
|
|
1012,
|
|
11,
|
|
1212,
|
|
11,
|
|
1012,
|
|
11,
|
|
3333,
|
|
|
|
#GOGOSTART
|
|
10111000,
|
|
20222000,
|
|
1110,
|
|
2220,
|
|
10111000,
|
|
20222000,
|
|
1110,
|
|
4440,
|
|
33,
|
|
44,
|
|
33,
|
|
44,
|
|
3333,
|
|
4444,
|
|
3333,
|
|
500000000000000000000000000008000000000000000000,
|
|
|
|
#GOGOEND
|
|
#BPMCHANGE 135.75
|
|
#SCROLL 1.02
|
|
12,
|
|
#BPMCHANGE 138.04
|
|
#SCROLL 1
|
|
2220,
|
|
#BPMCHANGE 135.78
|
|
#SCROLL 1.02
|
|
12,
|
|
#BPMCHANGE 141.83
|
|
#SCROLL 0.97
|
|
2220,
|
|
#BPMCHANGE 137.13
|
|
#SCROLL 1.01
|
|
10011000,
|
|
#BPMCHANGE 137.58
|
|
#SCROLL 1
|
|
20022000,
|
|
#BPMCHANGE 138.27
|
|
10011000,
|
|
#BPMCHANGE 137.13
|
|
#SCROLL 1.01
|
|
20022000,
|
|
|
|
#GOGOSTART
|
|
#BPMCHANGE 139.56
|
|
#SCROLL 0.99
|
|
10022000,
|
|
#BPMCHANGE 138
|
|
#SCROLL 1
|
|
20022000,
|
|
#BPMCHANGE 139.13
|
|
#SCROLL 0.99
|
|
10022000,
|
|
#BPMCHANGE 136.89
|
|
#SCROLL 1.01
|
|
20022000,
|
|
#BPMCHANGE 137.48
|
|
#SCROLL 1
|
|
1111,
|
|
#BPMCHANGE 138.53
|
|
2222,
|
|
#BPMCHANGE 139.15
|
|
#SCROLL 0.99
|
|
11101110,
|
|
|
|
#GOGOEND
|
|
#BPMCHANGE 138
|
|
#SCROLL 1
|
|
1033,
|
|
3,
|
|
|
|
|
|
#END
|
|
|