538 lines
6.8 KiB
Plaintext
538 lines
6.8 KiB
Plaintext
//TJADB Project
|
|
TITLE:Thank You!
|
|
TITLEJA:Thank You!
|
|
SUBTITLE:--Takafumi Sato feat. Haruka Yamazaki/THE iDOLM@STER ONE FOR ALL
|
|
SUBTITLEJA:「アイドルマスター ミリオンライブ!」より
|
|
BPM:177
|
|
WAVE:Thank You!.ogg
|
|
OFFSET:-2.865
|
|
DEMOSTART:50.583
|
|
|
|
//Shinuchi: 6410/4520/2740/1820
|
|
|
|
COURSE:Oni
|
|
LEVEL:8
|
|
BALLOON:
|
|
SCOREINIT:600,1960
|
|
SCOREDIFF:150
|
|
|
|
#START
|
|
#MEASURE 8/4
|
|
#SCROLL 0.5
|
|
2,
|
|
2,
|
|
2, //3
|
|
|
|
#MEASURE 4/4
|
|
#SCROLL 1
|
|
#GOGOSTART
|
|
10201121,
|
|
00212103,
|
|
0010202210102012,
|
|
11214400, //7
|
|
#GOGOEND
|
|
|
|
0112,
|
|
2000101020020020,
|
|
10011000,
|
|
4000004040222000,
|
|
|
|
0000100010002022,
|
|
2000101020222000,
|
|
1010101010101022,
|
|
1010102220102000, //15
|
|
|
|
2121,
|
|
2000201020022020,
|
|
10211000,
|
|
4000004040222000,
|
|
|
|
2121,
|
|
20212020,
|
|
1010201120102022,
|
|
2010201020111000, //23
|
|
|
|
500000000000000000000008000000000000400000000000,
|
|
500000000000000000000008000000000000400000000000,
|
|
500000000000000000000008000000000000400000000000,
|
|
500000000000000000000008000000000000400000000000,
|
|
|
|
2010221020102210,
|
|
2010221220102022,
|
|
1011201021112050,
|
|
000000000000000000000000000000000008000000000000,
|
|
4,
|
|
0222, //33
|
|
|
|
#GOGOSTART
|
|
1010201210102011,
|
|
1010201210022011,
|
|
1010201210102010,
|
|
0010201210022011,
|
|
|
|
11210500,
|
|
000000000008000000000000100000200200100000200200,
|
|
1010202220102010,
|
|
0010201022104000, //41
|
|
|
|
1010201210102011,
|
|
1010201210022011,
|
|
1010201210102010,
|
|
0010222220101012,
|
|
|
|
2010201220102012,
|
|
2010201220102000,
|
|
10103333,
|
|
00040000, //49
|
|
|
|
6,
|
|
000000000000000000000000000000000008000000000000,
|
|
#GOGOEND
|
|
0000200000002002,
|
|
2000200220202002,
|
|
|
|
10201120,
|
|
11212020,
|
|
10201121,
|
|
01212140, //57
|
|
|
|
1021021010210210,
|
|
1012012010120120,
|
|
5,
|
|
000000000000000000000000000000000008000000000000,
|
|
|
|
1020102210201022,
|
|
1020101220221000,
|
|
333333,
|
|
#MEASURE 6/4
|
|
4, //65
|
|
|
|
#GOGOSTART
|
|
300000000000202022122122,
|
|
#MEASURE 4/4
|
|
1010201210102011,
|
|
1010201210022011,
|
|
|
|
11210500,
|
|
000000000008000000000000100000200200100000200200,
|
|
1010202220102010,
|
|
0010201022104000, //72
|
|
|
|
1010201210102011,
|
|
1010201210022011,
|
|
1010201210102010,
|
|
0010222220101012,
|
|
|
|
2010201220102012,
|
|
2010201220102000,
|
|
10103333,
|
|
#GOGOEND
|
|
0000002220202020, //80
|
|
|
|
#GOGOSTART
|
|
6,
|
|
0,
|
|
000000000000000008000000000000000000000000000000,
|
|
0,
|
|
|
|
300000000000000000000022,
|
|
#GOGOEND
|
|
2,
|
|
0, //87
|
|
#END
|
|
|
|
|
|
COURSE:Hard
|
|
LEVEL:5
|
|
BALLOON:3,3,3,3
|
|
SCOREINIT:650,3190
|
|
SCOREDIFF:173
|
|
|
|
#START
|
|
#MEASURE 8/4
|
|
#SCROLL 0.5
|
|
2,
|
|
2,
|
|
2, //3
|
|
|
|
#MEASURE 4/4
|
|
#SCROLL 1
|
|
#GOGOSTART
|
|
10201121,
|
|
00212103,
|
|
01111111,
|
|
11114400, //7
|
|
#GOGOEND
|
|
|
|
0112,
|
|
2110,
|
|
10011000,
|
|
40044000,
|
|
|
|
0112,
|
|
20112020,
|
|
11111111,
|
|
20220220, //15
|
|
|
|
1212,
|
|
1210,
|
|
10011000,
|
|
40044000,
|
|
|
|
1212,
|
|
10114040,
|
|
33,
|
|
3344, //23
|
|
|
|
500000000000000000000008000000000000400000000000,
|
|
500000000000000000000008000000000000400000000000,
|
|
500000000000000000000008000000000000400000000000,
|
|
500000000000000000000008000000000000400000000000,
|
|
|
|
11210121,
|
|
01210120,
|
|
11210125,
|
|
000000000000000000000000000000000008000000000000,
|
|
4,
|
|
0222, //33
|
|
|
|
#GOGOSTART
|
|
11211020,
|
|
11212020,
|
|
11211021,
|
|
01212020,
|
|
|
|
11210500,
|
|
000000000008000000000000100000000000100000000000,
|
|
10200121,
|
|
0111, //41
|
|
|
|
11211020,
|
|
11212020,
|
|
11211021,
|
|
01210222,
|
|
|
|
01110222,
|
|
01110220,
|
|
10103333,
|
|
00040000, //49
|
|
|
|
6,
|
|
000000000000000000000000000000000008000000000000,
|
|
#GOGOEND
|
|
0202,
|
|
0202,
|
|
|
|
0202,
|
|
0212,
|
|
10200021,
|
|
01212140, //57
|
|
|
|
7878,
|
|
7878,
|
|
5,
|
|
000000000000000000000000000008000000000000000000,
|
|
|
|
12121212,
|
|
12121212,
|
|
12123333,
|
|
#MEASURE 6/4
|
|
0, //65
|
|
|
|
#GOGOSTART
|
|
3,
|
|
#MEASURE 4/4
|
|
11211021,
|
|
01212020,
|
|
|
|
11210500,
|
|
000000000008000000000000100000000000100000000000,
|
|
10200121,
|
|
0111, //72
|
|
|
|
11211020,
|
|
11212020,
|
|
11211021,
|
|
01210222,
|
|
|
|
01110222,
|
|
01110220,
|
|
10103333,
|
|
#GOGOEND
|
|
00040000, //80
|
|
|
|
#GOGOSTART
|
|
6,
|
|
0,
|
|
000000000000000008000000000000000000000000000000,
|
|
0,
|
|
|
|
3,
|
|
#GOGOEND
|
|
0,
|
|
0, //87
|
|
#END
|
|
|
|
|
|
COURSE:Normal
|
|
LEVEL:4
|
|
BALLOON:2,2,2,2
|
|
SCOREINIT:810,6570
|
|
SCOREDIFF:288
|
|
|
|
#START
|
|
#MEASURE 8/4
|
|
#SCROLL 0.5
|
|
2,
|
|
2,
|
|
2, //3
|
|
|
|
#MEASURE 4/4
|
|
#SCROLL 0.85
|
|
#GOGOSTART
|
|
0303,
|
|
0303,
|
|
0303,
|
|
0303, //7
|
|
#GOGOEND
|
|
|
|
0110,
|
|
0110,
|
|
10011000,
|
|
40044000,
|
|
|
|
0110,
|
|
0110,
|
|
1111,
|
|
2220, //15
|
|
|
|
1212,
|
|
11,
|
|
10011000,
|
|
40044000,
|
|
|
|
1212,
|
|
1044,
|
|
33,
|
|
3333, //23
|
|
|
|
500000000000000000000008000000000000400000000000,
|
|
500000000000000000000008000000000000400000000000,
|
|
500000000000000000000008000000000000400000000000,
|
|
500000000000000000000008000000000000400000000000,
|
|
|
|
0404,
|
|
0404,
|
|
6,
|
|
000000000000000000000000000008000000000000000000,
|
|
4,
|
|
0, //33
|
|
|
|
#GOGOSTART
|
|
0101,
|
|
0111,
|
|
0101,
|
|
0111,
|
|
|
|
00100500,
|
|
000000000008000000000000200000000000200000000000,
|
|
20000003,
|
|
0, //41
|
|
|
|
0101,
|
|
0111,
|
|
0101,
|
|
0100,
|
|
|
|
000000500000000000000000000008000000000000000000,
|
|
000000500000000000000000000008000000000000000000,
|
|
10103333,
|
|
00040000, //49
|
|
|
|
6,
|
|
000000000000000000000000000000000008000000000000,
|
|
#GOGOEND
|
|
0202,
|
|
0202,
|
|
|
|
0202,
|
|
0202,
|
|
0202,
|
|
0222, //57
|
|
|
|
7878,
|
|
7878,
|
|
5,
|
|
000000000000000000000000000000000008000000000000,
|
|
|
|
3333,
|
|
3333,
|
|
30303333,
|
|
#MEASURE 6/4
|
|
0, //65
|
|
|
|
#GOGOSTART
|
|
3,
|
|
#MEASURE 4/4
|
|
0101,
|
|
0111,
|
|
|
|
00100500,
|
|
000000000008000000000000200000000000200000000000,
|
|
20000003,
|
|
0, //72
|
|
|
|
0101,
|
|
0111,
|
|
0101,
|
|
0100,
|
|
|
|
000000500000000000000000000008000000000000000000,
|
|
000000500000000000000000000008000000000000000000,
|
|
10103333,
|
|
#GOGOEND
|
|
00040000, //80
|
|
|
|
#GOGOSTART
|
|
6,
|
|
0,
|
|
000000000000000008000000000000000000000000000000,
|
|
0,
|
|
|
|
3,
|
|
#GOGOEND
|
|
0,
|
|
0, //87
|
|
#END
|
|
|
|
|
|
COURSE:Easy
|
|
LEVEL:3
|
|
BALLOON:2,2,2,2
|
|
SCOREINIT:720,9870
|
|
SCOREDIFF:368
|
|
|
|
#START
|
|
#MEASURE 8/4
|
|
#SCROLL 0.5
|
|
2,
|
|
2,
|
|
2, //3
|
|
|
|
#MEASURE 4/4
|
|
#SCROLL 0.8
|
|
#GOGOSTART
|
|
0303,
|
|
0303,
|
|
0303,
|
|
0303, //7
|
|
#GOGOEND
|
|
|
|
0,
|
|
0,
|
|
0,
|
|
33,
|
|
|
|
0,
|
|
0,
|
|
5,
|
|
000000000000000000000000000008000000000000000000, //15
|
|
|
|
11,
|
|
1,
|
|
11,
|
|
44,
|
|
|
|
11,
|
|
1044,
|
|
33,
|
|
3333, //23
|
|
|
|
500000000000000000000008000000000000400000000000,
|
|
500000000000000000000008000000000000400000000000,
|
|
500000000000000000000008000000000000400000000000,
|
|
500000000000000000000008000000000000400000000000,
|
|
|
|
0404,
|
|
0404,
|
|
6,
|
|
000000000000000000000000000008000000000000000000,
|
|
4,
|
|
0, //33
|
|
|
|
#GOGOSTART
|
|
0101,
|
|
0101,
|
|
0101,
|
|
0101,
|
|
|
|
00100500,
|
|
000000000008000000000000000000000000000000000000,
|
|
20000003,
|
|
0, //41
|
|
|
|
0101,
|
|
0101,
|
|
0101,
|
|
0100,
|
|
|
|
000000500000000000000000000008000000000000000000,
|
|
000000500000000000000000000008000000000000000000,
|
|
00000003,
|
|
0, //49
|
|
|
|
6,
|
|
000000000000000000000000000000000008000000000000,
|
|
#GOGOEND
|
|
0202,
|
|
0202,
|
|
|
|
0202,
|
|
0202,
|
|
0202,
|
|
0202, //57
|
|
|
|
7878,
|
|
7878,
|
|
5,
|
|
000000000000000000000000000000000008000000000000,
|
|
|
|
3333,
|
|
3333,
|
|
3333,
|
|
#MEASURE 6/4
|
|
0, //65
|
|
|
|
#GOGOSTART
|
|
3,
|
|
#MEASURE 4/4
|
|
0101,
|
|
0101,
|
|
|
|
00100500,
|
|
000000000008000000000000000000000000000000000000,
|
|
20000003,
|
|
0, //72
|
|
|
|
0101,
|
|
0101,
|
|
0101,
|
|
0100,
|
|
|
|
000000500000000000000000000008000000000000000000,
|
|
000000500000000000000000000008000000000000000000,
|
|
00000003,
|
|
#GOGOEND
|
|
0, //80
|
|
|
|
#GOGOSTART
|
|
6,
|
|
0,
|
|
000000000000000008000000000000000000000000000000,
|
|
0,
|
|
|
|
3,
|
|
#GOGOEND
|
|
0,
|
|
0, //87
|
|
#END |