Files
TJA-by-song-no/tja/608.tja
2026-03-04 23:59:27 +09:00

314 lines
3.6 KiB
Plaintext

//TJADB Project
TITLE:Osakana Mainichi! Sakana-kun
TITLEJA:おさかな毎日!さかなクン
SUBTITLE:--Sakana-kun
SUBTITLEJA:さかなクン
BPM:123.78
WAVE:Osakana Mainichi! Sakana-kun.ogg
OFFSET:-4.230
DEMOSTART:8.108
//shinuchi: 13480/5960/4290/2700
COURSE:Oni
LEVEL:7
BALLOON:12,12,17
SCOREINIT:860,2930
SCOREDIFF:240
#START
11221122,
#BPMCHANGE 125.28
#SCROLL 0.98
70
#BPMCHANGE 122.86
#SCROLL 1
08,
#BPMCHANGE 123
1020202200002000,
2020102200222000,
1020202200002000,
2020102200102000,
1120202200002000,
2220102200222000,
10201122,
34343000, //10
1110222011221020,
1110222011221000,
1110222011221020,
1110202011112000,
1020120120102100,
7008,
1110202211221000,
1110201120102000,
1110202211221000,
1110201120102000, //20
1110202211112000,
1111120300400000,
1110202211112000,
1110201120102000,
10211020,
10211020,
34021210,
3003003040004000, //28
#GOGOSTART
1110202010221120,
1021012000202000,
1110202010221120,
1021012000202000,
1110202011102020,
1022102000202000,
344344,
600000000000000000000008000000000000000000000000, //36
1110202210221120,
1021012000202000,
1110202210221120,
1021012000202000,
1110222011102220,
1022102000202011,
1000201120002000,
7,
#GOGOEND
8,
0,
0, //47
#END
COURSE:Hard
LEVEL:4
BALLOON:10,10,10,15
SCOREINIT:950,4900
SCOREDIFF:300
#START
10201120,
#BPMCHANGE 125.28
#SCROLL 0.98
70
#BPMCHANGE 122.86
#SCROLL 1
08,
#BPMCHANGE 123
1010100100000000,
2020200200000000,
1010100200000000,
2020200100000000,
1010200200000000,
2020100200000000,
10201120,
34343000, //10
10101110,
10102220,
10101110,
10102220,
0,
7008,
1010200011102000,
11212000,
1010200011102000,
11212000, //20
1010202011102000,
1010200300000000,
1010202011102000,
11212000,
10201120,
10221020,
34043430,
7008, //28
#GOGOSTART
1010202011102020,
1001002000000000,
1010202011102020,
1002002000000000,
10201120,
10210200,
333444,
600000000000000000000008000000000000000000000000, //36
1110202011102020,
1001002000000000,
1110202011102020,
1002002000000000,
10201120,
12120203,
30034000,
9009,
#GOGOEND
8,
0,
0, //47
#END
COURSE:Normal
LEVEL:4
BALLOON:8,8,8,6,12
SCOREINIT:1050,7430
SCOREDIFF:408
#START
1122,
#BPMCHANGE 125.28
#SCROLL 0.98
70
#BPMCHANGE 122.86
#SCROLL 1
08,
#BPMCHANGE 123
1100,
1100,
1100,
2200,
1100,
2200,
10101110,
3330, //10
1110,
1122,
1110,
1144,
0,
7008,
10101110,
10022000,
10101110,
10022000, //20
10101110,
13,
10101110,
10022000,
1122,
1122,
33033040,
7008, //28
#GOGOSTART
11102020,
3003003000000000,
11102020,
3003003000000000,
1122,
10110200,
600000000000000000000000000000000000000008000000,
78, //36
11102020,
3003003000000000,
11102020,
3003003000000000,
1122,
10110200,
30033040,
9009,
#GOGOEND
8,
0,
0, //47
#END
COURSE:Easy
LEVEL:2
BALLOON:6,4,4,3,7
SCOREINIT:1400,16290
SCOREDIFF:1225
#START
3,
#BPMCHANGE 125.28
#SCROLL 0.98
70
#BPMCHANGE 122.86
#SCROLL 1
08,
#BPMCHANGE 123
1,
2,
1,
2,
1,
2,
11,
3330, //10
11,
1011,
11,
1033,
0,
7008,
1,
500000000000000000000008000000000000000000000000,
1,
500000000000000000000008000000000000000000000000, //20
1,
13,
1,
500000000000000000000008000000000000000000000000,
11,
22,
3330,
7008, //28
#GOGOSTART
1011,
1,
1011,
1,
11,
1110,
600000000000000000000000000000000008000000000000,
7008, //36
1011,
1,
1011,
1,
11,
1110,
600000000000000000000000000000000008000000000000,
9009,
#GOGOEND
8,
0,
0, //47
#END