Files
TJA-by-song-no/tja/618.tja
2026-03-04 23:59:27 +09:00

479 lines
6.2 KiB
Plaintext

//TJADB Project
TITLE:Kimi no Planet
TITLEJA:君のプラネット
SUBTITLE:--Masanobu Komaba feat. Haruka Shimotsuki
BPM:105
WAVE:Kimi no Planet.ogg
OFFSET:-2.668
DEMOSTART:96.380
COURSE:Oni
LEVEL:8
BALLOON:19
SCOREINIT:650
SCOREDIFF:175
#START
2,
#BPMCHANGE 104.36
22,
#BPMCHANGE 105
2,
22,
#BPMCHANGE 105.24
#SCROLL 0.99
22,
#BPMCHANGE 104.33
#SCROLL 1
2222,
#BPMCHANGE 106.38
#SCROLL 0.98
2000200200202020,
#BPMCHANGE 104.82
#SCROLL 1
2020200200000000,
#BPMCHANGE 105
2002020200220200,
2002020200220200,
2002020002022220,
2022220000300000,
#GOGOSTART
1001012010010122,
1022102010020020,
1012002010120210,
1022102012210120,
1001012010010122,
1022102010020020,
1012002010120210,
1022102012210120,
#GOGOEND
1002000100000100,
1002000100010100,
1002000100000100,
1001022210201020,
1002000100000100,
1002000100010100,
1002000100000100,
1001022210201020,
1002000100102100,
1001002100010100,
1002000100102100,
1001022210221020,
1002000100102100,
1001002100010100,
1002000100102100,
1001022210221020,
#BPMCHANGE 102.85
#SCROLL 1.02
10000220,
#BPMCHANGE 107.05
#SCROLL 0.98
10000220,
#BPMCHANGE 105
#SCROLL 1
10000220,
#BPMCHANGE 105.18
#SCROLL 0.99
7,
#BPMCHANGE 105
#SCROLL 1
8,
#GOGOSTART
#SCROLL 1.2
1012020101102020,
1012010102202010,
1012010102112030,
3040402101201120,
1021010101102020,
1021010102202010,
1021010101221030,
3004040402101120,
1012010101102020,
1012010102202010,
1012010102112030,
3040402101201120,
1021010101102020,
1021010102202010,
1021010101221030,
4030402111200306,
000000000000000000000000000000000000000000000008,
0000200020020020,
1012002010120210,
1022102012210120,
1001012010010122,
1022102010020020,
1012002010120210,
1022102012212120,
#GOGOEND
#BARLINEOFF
300003000000
#SCROLL 1
3000,
0300
#BPMCHANGE 96.26
000030000000,
#END
COURSE:Hard
LEVEL:6
BALLOON:14
SCOREINIT:720
SCOREDIFF:205
#START
2,
#BPMCHANGE 104.36
22,
#BPMCHANGE 105
2,
22,
#SCROLL 0.99
#BPMCHANGE 105.24
22,
#SCROLL 1
#BPMCHANGE 104.33
2220,
#SCROLL 0.98
#BPMCHANGE 106.38
2220,
#SCROLL 1
#BPMCHANGE 104.82
2000200200000000,
#BPMCHANGE 105
5000000000000000000000000000000000000000000000080000000000000000,
,
,
00000300,//12
#GOGOSTART
1001002010010020,
1000100020020020,
1001002010010020,
1110111011102000,
1001002010010020,
1000100020020020,
1001002010010020,
1110111011102000,//20
#GOGOEND
1002000100000000,
1002000100000000,
1001000010010000,
1001002000102000,
1002000100000000,
1002000100000000,
1001000010010000,
1001002000102000,
1002000100000000,
1002000100000000,
1002000010020000,
1001002000202000,
1002000100000000,
1002001000000000,
1002000010020000,
1001002000202000,
#SCROLL 1.02
#BPMCHANGE 102.85
20000220,
#SCROLL 0.98
#BPMCHANGE 107.05
20000220,
#SCROLL 1
#BPMCHANGE 105
20000220,
#SCROLL 0.99
#BPMCHANGE 105.18
7,
#SCROLL 1
#BPMCHANGE 105
8,//41
#SCROLL 1.2
#GOGOSTART
1011010100202000,
1011010100202000,
1011010100202000,
3030302202200000,
1011010100202000,
1011010100202000,
1011010100202000,
3003030300400000,
1022020200101000,
1022020200101000,
1022020200101000,
3030302202200000,
1022020200101000,
1022020200101000,
1022020200101000,
3030303002200306,
0000000000000000000000000000000000000000000000000000000000000008,
0000200020020020,
1001002010010020,
1110111011102000,
1001002010010020,
1000100020020020,
1001002010010020,
1110111011102000,//65
#MEASURE 3/4
#GOGOEND
300003000000,
#BARLINEOFF
#SCROLL 1
#MEASURE 2/4
30000300,
#BPMCHANGE 96.26
#MEASURE 1/4
,
#MEASURE 4/4
3,
,
,
,
#END
COURSE:Normal
LEVEL:5
BALLOON:10,10
#START
2,
#BPMCHANGE 104.36
22,
#BPMCHANGE 105
2,
22,
#SCROLL 0.99
#BPMCHANGE 105.24
22,
#SCROLL 1
#BPMCHANGE 104.33
2220,
#SCROLL 0.98
#BPMCHANGE 106.38
2220,
#SCROLL 1
#BPMCHANGE 104.82
2000200200000000,
#BPMCHANGE 105
5000000000000000000000000000000000000000000000080000000000000000,
,
,
00000300,//12
#GOGOSTART
1001000010010000,
1000100020020020,
1001000010010000,
1222,
1001000010010000,
1000100020020020,
1001000010010000,
1222,//20
#GOGOEND
1001000000000000,
1001000000000000,
1001000010010000,
1001000000202000,
1001000000000000,
1001000000000000,
1001000010010000,
1001000000202000,
1002000000000000,
1002000000000000,
1002000010020000,
1002000000202000,
1002000000000000,
1002000000000000,
1002000010020000,
1002000000202000,
#SCROLL 1.02
#BPMCHANGE 102.85
2002,
#SCROLL 0.98
#BPMCHANGE 107.05
2002,
#SCROLL 1
#BPMCHANGE 105
2002,
#SCROLL 0.99
#BPMCHANGE 105.18
7,
#SCROLL 1
#BPMCHANGE 105
8,//41
#SCROLL 1.2
#GOGOSTART
1001010100002000,
1001010100002000,
1001010100002000,
5000000000000000000000000000000000000008000000000000000000000000,
1001010100002000,
1001010100002000,
1001010100002000,
5000000000000000000000000000000000000008000000000000000000000000,
1001010100202000,
1001010100202000,
1001010100202000,
3000000030000000300000006000000000000008000000000000000000000000,
1001010100202000,
1001010100202000,
1001010100202000,
3000000030000000300000006000000000000008000000000000300000009000,
0009,
8,
1001000010010000,
1222,
1001000010010000,
1000100020020020,
1001000010010000,
1222,//65
#MEASURE 3/4
#GOGOEND
300003000000,
#SCROLL 1
#MEASURE 2/4
#BARLINEOFF
30000300,
#BPMCHANGE 96.26
#MEASURE 1/4
,
#MEASURE 4/4
3,
,
,
,
#END
COURSE:Easy
LEVEL:3
BALLOON:7,10
#START
2,
#BPMCHANGE 104.36
22,
#BPMCHANGE 105
2,
22,
#SCROLL 0.99
#BPMCHANGE 105.24
22,
#SCROLL 1
#BPMCHANGE 104.33
2220,
#SCROLL 0.98
#BPMCHANGE 106.38
22,
#SCROLL 1
#BPMCHANGE 104.82
2220,
#BPMCHANGE 105
5000000000000000000000000000000000000000000000080000000000000000,
,
,
00000300,//12
#GOGOSTART
12,
1110,
1120,
1122,
12,
1110,
1120,
1122,//20
#GOGOEND
1,
1100,
1110,
1120,
1,
1100,
1110,
1120,
1,
1100,
1110,
1122,
1,
1100,
1110,
1122,
#SCROLL 1.02
#BPMCHANGE 102.85
2002,
#SCROLL 0.98
#BPMCHANGE 107.05
2002,
#SCROLL 1
#BPMCHANGE 105
2002,
#SCROLL 0.99
#BPMCHANGE 105.18
7,
#SCROLL 1
#BPMCHANGE 105
8,//41
#SCROLL 1.2
#GOGOSTART
1110,
1110,
2220,
5000000000000000000000000000000000000008000000000000000000000000,
1110,
1110,
2220,
5000000000000000000000000000000000000008000000000000000000000000,
11101000,
11101000,
2220,
3000000030000000300000006000000000000008000000000000000000000000,
11101000,
11101000,
2220,
3000000030000000300000006000000000000008000000000000000000009000,
0009,
8,
1120,
1122,
12,
1110,
1120,
1122,//65
#MEASURE 3/4
#GOGOEND
300003000000,
#SCROLL 1
#MEASURE 2/4
30000300,
#BPMCHANGE 96.26
#MEASURE 1/4
,
#MEASURE 4/4
3,
,
,
,
#END