Files
TJA-by-song-no/tja/671.tja
2026-03-04 23:59:27 +09:00

600 lines
8.1 KiB
Plaintext
Raw Blame History

This file contains ambiguous Unicode characters
This file contains Unicode characters that might be confused with other characters. If you think that this is intentional, you can safely ignore this warning. Use the Escape button to reveal them.
//TJADB Project
TITLE:Tulip
TITLEJA:Tulip
SUBTITLE:--Kakeru Ishihama (MONACA) feat. LiPPS/THE iDOLM@STER Cinderella Girls Starlight Stage
SUBTITLEJA:「アイドルマスター シンデレラガールズ」より
BPM:154
WAVE:Tulip.ogg
OFFSET:-1.681
DEMOSTART:49.941
//Shinuchi: 6580/4870/2320/1930/1400
COURSE:Edit
LEVEL:9
BALLOON:5,5,5,5
SCOREINIT:470,1480
SCOREDIFF:118
#START
#BARLINEOFF
0,
0,
#BARLINEON
000000000000110000110000,
1020102212010020,
1020102212010022,
1020102212010020,
3003003000000000, //7
1020112010210020,
1020112010210020,
1020112010211020,
0010002000112000,
1022102010210020,
1022102010210020,
1022102010212010,
0020102210222022, //15
1011202210210010,
0011201210210200,
0011202210212010,
0011202210102220,
1011202210210010,
0011202120210200,
0011202210221210,
0033, //23
1010220210102202,
1010220210221000,
100100200000200000100100200000200000700000000080,
0020201022112100,
1020201202201022,
0210102202101000,
1111201111203040,
0000000000112000, //31
#GOGOSTART
2011202000221011,
0210102211012022,
1000201120221022,
0220202211012022,
1001201210212011,
0211201102112020,
100200200200100000100200200200100000700000000080,
0020221210003000, //39
2011202000221011,
0210102211012022,
1000201120221022,
0220202211012022,
1001201210212011,
0211201102112020,
1222101222105000,
000000000008000000200000100000200000200000000000, //47
#GOGOEND
1020102211010020,
1020102211010020,
1020102211010020,
100000200000100000200200101000000000101000000000,
1020102212010020,
1020102212010022,
1020102212010020,
3003003000000000, //55
1,
00000120,
100100200100200000200100100200100000700000000080,
0020102212102022,
1020201202201022,
0210102202101000,
1211201121221120,
0010210110102100, //63
#GOGOSTART
30000303,
000400000000000000000111,
20403403,
0040404011112112,
1011201210212021,
0211201102112020,
100200200200100000100200200200100000700000000080,
0020221210003000, //71
2011202000221011,
0210102211012022,
1000201120221022,
0220202211012022,
1011201210212021,
0211201102112020,
1222101222105000,
000000000008000000200000100000200000200000000000,
#GOGOEND
0,
#BARLINEOFF
0, //81
#END
COURSE:Oni
LEVEL:6
BALLOON:10,10
SCOREINIT:570,2420
SCOREDIFF:148
#START
#BARLINEOFF
0,
0,
#BARLINEON
0000000011001100,
1010202011010020,
1010202011010020,
1010202011010020,
3003003000000000, //7
0010202010020000,
0010202010010000,
01201122,
0010001000222000,
0010202010020000,
0010202010020000,
01221122,
0010202010222022, //15
0010202010010020,
0010202010110000,
0010202011102020,
0010202010102220,
0010202010010020,
0010202010020000,
0010202010102220,
0033, //23
1010200011102000,
1010200011102000,
30430470,
00000800,
1010202200200010,
0010101100202000,
30340403,
0000000000112000, //31
#GOGOSTART
30440303,
0011101011104000,
00304403,
0011101011104000,
0000101022202010,
000000100000200000500000000008000000000000300000,
40340360,
000000000000000008000000400000000000400000000000, //39
30440303,
0011101011104000,
00304403,
0011101011104000,
0000101022202010,
000000100000200000500000000008000000000000300000,
40340360,
000000000008000000200000100000200000200000000000, //47
#GOGOEND
1010202011010020,
1010202011010020,
1010202011010020,
1010200011001100,
1010201022010020,
1010201022010020,
1010201022010020,
3003003000000000, //55
20002005,
000000000008000000000000200000100000200000000000,
30430470,
00000800,
1010202200200010,
0010101100202000,
30340403,
0, //63
#GOGOSTART
30000303,
0040000000000011,
10304303,
03333040,
0000101022202010,
000000100000200000500000000008000000000000300000,
40340360,
000000000000000008000000400000000000400000000000, //71
30440303,
0011102011104000,
00304403,
0011102011104000,
0000101022202010,
000000100000200000500000000008000000000000300000,
40340360,
000000000008000000200000100000200000200000000000,
#GOGOEND
0,
#BARLINEOFF
0, //81
#END
COURSE:Hard
LEVEL:5
BALLOON:20,10,5,5,5,5,10,5,5
SCOREINIT:560,3420
SCOREDIFF:138
#START
#BARLINEOFF
0,
0,
#BARLINEON
0033,
7,
0008,
7008,
3003003000000000, //7
0010200010010000,
0010200010010000,
01201122,
0,
0010200010020000,
0010200010020000,
01201122,
0, //15
1010200010010000,
1010200010010000,
11201122,
0,
1010200010020000,
1010200010020000,
11201121,
0033, //23
11201210,
11202120,
30440460,
000000000000000000000000000008000000000000000000,
1010101100100010,
0010101100101000,
30440304,
0, //31
#GOGOSTART
30440303,
03337080,
00304403,
03337080,
00112021,
01020003,
40340360,
000000000000000008000000400000000000400000000000, //39
30440303,
03337080,
00304403,
03337080,
00112021,
01020003,
40340360,
000000000008000000200000200000200000200000000000, //47
#GOGOEND
1010200011010000,
1010200011010000,
1010200011010000,
11203030,
1010200011020000,
1010200011020000,
1010200011020000,
3003003000000000, //55
20002005,
000000000008000000000000200000100000200000000000,
900000000000000000000000000000000009000000000008,
0,
1010101100100010,
0010101100101000,
30440304,
0, //63
#GOGOSTART
30000303,
04000000,
30403403,
03333040,
00112021,
01020003,
40340360,
000000000000000008000000400000000000400000000000, //71
30440303,
03337080,
00304403,
03337080,
00112021,
01020003,
40340360,
000000000008000000200000200000200000200000000000,
#GOGOEND
0,
#BARLINEOFF
0, //81
#END
COURSE:Normal
LEVEL:3
BALLOON:15,5,5,5,5,5,15,5,10,5,5,5
SCOREINIT:820,7750
SCOREDIFF:238
#START
#BARLINEOFF
0,
0,
#BARLINEON
0033,
7,
0008,
7008,
3003003000000000, //7
12,
12,
1111,
0,
12,
12,
1111,
0, //15
1110,
1110,
1111,
0,
2220,
2220,
2222,
0011, //23
10001005,
000000000008000000000000200000000000200000000000,
10010060,
000000000000000000000000000008000000000000000000,
30000003,
0,
30030304,
0, //31
#GOGOSTART
30300303,
07000080,
00303003,
07000080,
0101,
000000500000000000000000000008000000000000000000,
30030060,
000000000000000008000000000000000000000000000000, //39
30300303,
07000080,
00303003,
07000080,
0101,
000000500000000000000000000008000000000000000000,
30030060,
000000000008000000000000200000000000200000000000, //47
#GOGOEND
1210,
1210,
1210,
1233,
7,
0008,
7008,
3003003000000000, //55
20002005,
000000000008000000000000000000000000000000000000,
900000000000000000000000000000000009000000000008,
0,
30000003,
0,
30030304,
0, //63
#GOGOSTART
30000303,
03000000,
00303003,
07000080,
0101,
000000500000000000000000000008000000000000000000,
30030060,
000000000000000008000000000000000000000000000000, //71
30300303,
07000080,
00303003,
07000080,
0101,
000000500000000000000000000008000000000000000000,
30030060,
000000000008000000000000200000000000200000000000,
#GOGOEND
0,
#BARLINEOFF
0, //81
#END
COURSE:Easy
LEVEL:3
BALLOON:10,5,5,7,5,7,5,10,5,5,5,5,7,5
SCOREINIT:760,10510
SCOREDIFF:265
#START
#BARLINEOFF
0,
0,
#BARLINEON
0033,
7,
0008,
7008,
3003003000000000, //7
1,
1,
1011,
0,
2,
2,
2022,
0, //15
1100,
1100,
1111,
0,
2200,
2200,
2222,
0011, //23
10001005,
000000000008000000000000000000000000000000000000,
30030060,
000000000000000000000000000008000000000000000000,
30000003,
0,
900000000000000000000000000000090000000000800000,
0, //31
#GOGOSTART
30300700,
0008,
00303007,
0008,
0101,
0100,
30030060,
000000000000000008000000000000000000000000000000, //39
30300700,
0008,
00303007,
0008,
0101,
0100,
30030060,
000000000008000000000000000000000000000000000000, //47
#GOGOEND
1100,
1100,
1100,
1144,
7,
0008,
7008,
3003003000000000, //55
1,
0,
900000000000000000000000000000000009000000000008,
0,
30000003,
0,
900000000000000000000000000000090000000000800000,
0, //63
#GOGOSTART
30000303,
03000000,
00303007,
0008,
0101,
0100,
30030060,
000000000000000008000000000000000000000000000000, //71
30300700,
0008,
00303007,
0008,
0101,
0100,
30030060,
000000000008000000000000000000000000200000000000,
#GOGOEND
0,
#BARLINEOFF
0, //81
#END