293 lines
3.6 KiB
Plaintext
293 lines
3.6 KiB
Plaintext
//TJADB Project
|
|
TITLE:Nonsense Bungaku
|
|
TITLEJA:ナンセンス文学
|
|
SUBTITLE:--Eve
|
|
SUBTITLEJA:Eve
|
|
BPM:154
|
|
WAVE:Nonsense Bungaku.ogg
|
|
OFFSET:-1.687
|
|
DEMOSTART:44.710
|
|
|
|
COURSE:Oni
|
|
LEVEL:7
|
|
SCOREINIT:680
|
|
SCOREDIFF:190
|
|
|
|
|
|
#START
|
|
|
|
|
|
30030030,
|
|
000200100100300030003000,
|
|
3,
|
|
1020102210210010,
|
|
1020102210210010,
|
|
1020102210210010,
|
|
1040040040040040,
|
|
1020102210210010,
|
|
1020102210210010,
|
|
1020102210210010,
|
|
1040040040040040,
|
|
,
|
|
1022102210210010,
|
|
1022102210210010,
|
|
1022102210210010,
|
|
1011201120120020,
|
|
1012121010120010,
|
|
1021201210120010,
|
|
1011201110121010,
|
|
30303140,
|
|
1000201110110020,
|
|
1000201010110120,
|
|
1000201110110020,
|
|
1020102010211020,
|
|
1000201110110020,
|
|
1000201010110120,
|
|
32223222,
|
|
3011111110202020,
|
|
|
|
#GOGOSTART
|
|
1020102210201020,
|
|
1022102010201020,
|
|
11221212,
|
|
30000030000060000000000000000800000000000200000,
|
|
22222111,
|
|
1020102010222020,
|
|
1020102010221020,
|
|
3020201030202220,
|
|
1020102210201020,
|
|
1022102010201020,
|
|
11221212,
|
|
30000030000060000000000000000800000000000200000,
|
|
1022011020110220,
|
|
1022011020221110,
|
|
32223222,
|
|
32323000,
|
|
|
|
#GOGOEND
|
|
1020102210210010,
|
|
1020102210210010,
|
|
1020102210210010,
|
|
1040040040040040,
|
|
1020102210210010,
|
|
1020102210210010,
|
|
1020102210210010,
|
|
100000400000000400000000400000004000000040000000,
|
|
444000,
|
|
|
|
|
|
#END
|
|
|
|
|
|
COURSE:Hard
|
|
LEVEL:4
|
|
BALLOON:18
|
|
SCOREINIT:960
|
|
SCOREDIFF:305
|
|
|
|
|
|
#START
|
|
|
|
|
|
#BARLINEOFF
|
|
,
|
|
,
|
|
,
|
|
#BARLINEON
|
|
1020102010010000,
|
|
1020102010010000,
|
|
1020102010010000,
|
|
500000000000000000000000000000000000000008000000,
|
|
1020102010010000,
|
|
1020102010010000,
|
|
1020102010010000,
|
|
500000000000000000000000000000000000000008000000,
|
|
,
|
|
1000100010010010,
|
|
1000100010010010,
|
|
1000100010010010,
|
|
2000200020020020,
|
|
1000200010020010,
|
|
1000200010020010,
|
|
1000200010020010,
|
|
3330,
|
|
1000200010010010,
|
|
1000200010010010,
|
|
1000200010010010,
|
|
10101110,
|
|
1000200010010010,
|
|
1000200010010010,
|
|
33,
|
|
3,//28
|
|
|
|
#GOGOSTART
|
|
11120202,
|
|
02210101,
|
|
11201120,
|
|
600000000000000000000000000008000000000000000000,
|
|
22201110,
|
|
12121000,
|
|
11111110,
|
|
33,
|
|
11120202,
|
|
02210101,
|
|
11201120,
|
|
600000000000000000000000000008000000000000000000,
|
|
1001001020020020,
|
|
1001001020000000,
|
|
3232,
|
|
3330,//44
|
|
|
|
#GOGOEND
|
|
1020102010010000,
|
|
1020102010010000,
|
|
1020102010010000,
|
|
500000000000000000000000000000000000000008000000,
|
|
1020102010010000,
|
|
1020102010010000,
|
|
1020102010010000,
|
|
9,
|
|
0009008,
|
|
,
|
|
,
|
|
#END
|
|
|
|
COURSE:Normal
|
|
LEVEL:2
|
|
BALLOON:13
|
|
SCOREINIT:1030
|
|
SCOREDIFF:485
|
|
|
|
#START
|
|
#BARLINEOFF
|
|
,
|
|
,
|
|
,
|
|
#BARLINEON
|
|
1110,
|
|
1110,
|
|
1110,
|
|
500000000000000000000000000000000000000008000000,
|
|
1110,
|
|
1110,
|
|
1110,
|
|
500000000000000000000000000000000000000008000000,
|
|
,
|
|
1110,
|
|
1110,
|
|
1110,
|
|
2220,
|
|
1210,
|
|
1210,
|
|
1210,
|
|
3330,
|
|
1210,
|
|
1210,
|
|
1210,
|
|
1110,
|
|
1210,
|
|
1210,
|
|
33,
|
|
3,//28
|
|
|
|
#GOGOSTART
|
|
1110,
|
|
2220,
|
|
1212,
|
|
600000000000000000000000000008000000000000000000,
|
|
2210,
|
|
2210,
|
|
1111,
|
|
33,
|
|
1110,
|
|
2220,
|
|
1212,
|
|
600000000000000000000000000008000000000000000000,
|
|
21,
|
|
21,
|
|
33,
|
|
3330,//44
|
|
|
|
#GOGOEND
|
|
1110,
|
|
1110,
|
|
1110,
|
|
500000000000000000000000000000000000000008000000,
|
|
1110,
|
|
1110,
|
|
1110,
|
|
9,
|
|
0009008,
|
|
,
|
|
,
|
|
#END
|
|
|
|
COURSE:Easy
|
|
LEVEL:2
|
|
BALLOON:9
|
|
SCOREINIT:1600
|
|
SCOREDIFF:1915
|
|
|
|
#START
|
|
#BARLINEOFF
|
|
,
|
|
,
|
|
,
|
|
#BARLINEON
|
|
1,
|
|
1,
|
|
1,
|
|
500000000000000000000000000008000000000000000000,
|
|
1,
|
|
1,
|
|
1,
|
|
500000000000000000000000000000000000000008000000,
|
|
,
|
|
11,
|
|
1,
|
|
11,
|
|
1,
|
|
11,
|
|
11,
|
|
1,
|
|
3,
|
|
1,
|
|
1,
|
|
1,
|
|
11,
|
|
1,
|
|
1,
|
|
33,
|
|
3,//28
|
|
|
|
#GOGOSTART
|
|
11,
|
|
11,
|
|
1,
|
|
600000000000000000000000000008000000000000000000,
|
|
2,
|
|
2,
|
|
11,
|
|
3,
|
|
11,
|
|
11,
|
|
1,
|
|
600000000000000000000000000008000000000000000000,
|
|
2,
|
|
2,
|
|
33,
|
|
3,//44
|
|
|
|
#GOGOEND
|
|
1,
|
|
1,
|
|
1,
|
|
500000000000000000000000000008000000000000000000,
|
|
1,
|
|
1,
|
|
1,
|
|
9,
|
|
0009008,
|
|
,
|
|
,
|
|
#END |