Files
TJA-by-song-no/tja/865.tja
2026-03-04 23:59:27 +09:00

389 lines
4.7 KiB
Plaintext
Raw Blame History

This file contains ambiguous Unicode characters
This file contains Unicode characters that might be confused with other characters. If you think that this is intentional, you can safely ignore this warning. Use the Escape button to reveal them.
//TJADB Project
TITLE:Rurou no Kohaku Hime
TITLEJA:流浪の琥珀姫
SUBTITLE:--SEIFU-MEIGETSU (Drop × Yura Hatsuki)
SUBTITLEJA:
BPM:134.67
WAVE:Rurou no Kohaku Hime.ogg
OFFSET:-2.570
DEMOSTART:61.363
//shinuchi: 8620/6090/3300/1940
COURSE:Oni
LEVEL:8
BALLOON:15
SCOREINIT:610,2010
SCOREDIFF:165
#START
102101121120,
102101121120,
102101121120,
102101121122,
#GOGOSTART
300020102020111010000000,
100220101020111010000000,
111222111222,
500000000008000020002000500000000000000008000000,
300020102020111010000000,
100220101020111010000000,
201010202020111010002000,
500000000000000000000000000000080000200010002000,
7008, //13
#GOGOEND
202020200220,
200020200000,
202020200020,
200220200000,
102020100220,
102020100022,
303030300220,
100210221110, //21
101122101020,
101202101120,
102110202210,
102110221110,
101122101020,
101202101120,
102110202210,
112121221212,
300300,
300000200220,
112121221221,
400100, //33
#GOGOSTART
300120101120,
101210102120,
101122101221,
100020201010100010202220,
100120101120,
101210102120,
101121101211,
100020101010100011102220, //41
102120101210,
100020102020100010201120,
102122101211,
100020102010100010201110,
102120101210,
100020102020100010201120,
102122102112,
#GOGOEND
100000200220, //49
#GOGOSTART
300020102020112010002000,
100220101020112010002000,
111222111222,
500000000008000020002000500000000000000008000000,
300020102020112010002000,
100220101020112010002000,
201010202020111010002000,
100020002000100020202000500000000000000008000000, //57
#GOGOEND
100020100011202010102010,
100020100011202010102000,
100020100011202010102222,
110101400000,
0,
#BARLINEOFF
0, //63
#END
COURSE:Hard
LEVEL:5
BALLOON:12,22
SCOREINIT:760,3500
SCOREDIFF:223
#START
#SCROLL 0.75
100100101020,
100100101020,
100100101020,
100100111010,
#GOGOSTART
300120111000,
100120111000,
111020111020,
500000000000000000000000000000000000008000000000,
300120111000,
100120111000,
111020102020,
500000000000000000000000000000000000008000000000,
7008, //13
#GOGOEND
22,
202200,
22,
202200,
11,
102102,
303030300220,
100220100000, //21
112110,
101000101120,
101110200000,
101110200000,
112110,
101000101120,
101110200000,
101110200000,
33,
32,
7,
08, //33
#GOGOSTART
300110102020,
101120200000,
100110102020,
102220200000,
100110102020,
101120200000,
100110102020,
500000000000000000000008000000002000000020000000, //41
102220102220,
100220101000,
102220100220,
122100,
102220102220,
100220101000,
102220100220,
#GOGOEND
100000200220, //49
#GOGOSTART
300120111000,
100120111000,
111020111020,
500000000000000000000000000000000000008000000000,
300120111000,
100120111000,
111020102020,
500000000000000000000000000000000000008000000000, //57
#GOGOEND
100100101120,
100100101120,
100100101120,
110101200000,
0,
#BARLINEOFF
0, //63
#END
COURSE:Normal
LEVEL:4
BALLOON:8,15
SCOREINIT:1050,6840
SCOREDIFF:415
#START
#SCROLL 0.75
1,
1,
1,
1,
#GOGOSTART
301210,
101210,
110220,
500000000000000000000000000000000008000000000000,
301210,
101210,
110220,
500000000000000000000000000000000008000000000000,
7008, //13
#GOGOEND
22,
202200,
22,
202200,
102200,
102200,
333300,
102200, //21
100110,
110100,
101200,
101200,
100110,
110100,
101200,
101200,
33,
32,
7,
08, //33
#GOGOSTART
301201,
102200,
101201,
100000005000000000000000000000000008000000000000,
101201,
102200,
101250,
008022, //41
5,
000008000000000000000000000000002000000020000000,
500000000000000000000000000000000000000000000008,
000202,
5,
000008000000000000000000000000002000000020000000,
500000000000000000000000000000000000000000000008,
#GOGOEND
0, //49
#GOGOSTART
301210,
101210,
110220,
500000000000000000000000000000000008000000000000,
301210,
101210,
110220,
500000000000000000000000000000000008000000000000, //57
#GOGOEND
100110,
100110,
100110,
34,
0,
#BARLINEOFF
0, //63
#END
COURSE:Easy
LEVEL:3
BALLOON:5,13,13
SCOREINIT:910,9780
SCOREDIFF:470
#START
#SCROLL 0.75
1,
1,
1,
1,
#GOGOSTART
301100,
101100,
22,
500000000000000000000000000008000000000000000000,
301100,
101100,
22,
500000000000000000000000000000000008000000000000,
70000800, //13
#GOGOEND
1,
11,
1,
22,
1,
22,
7,
08, //21
11,
11,
101100,
202200,
11,
11,
101100,
202200,
33,
32,
7,
08, //33
#GOGOSTART
301100,
102200,
101100,
100000005000000000000000000000080000000000000000,
101100,
102200,
101150,
000000000000080000000000000000001000000010000000, //41
5,
000008000000000000000000000000001000000010000000,
500000000000000000000000000000000000000000000008,
000101,
5,
000008000000000000000000000000001000000010000000,
500000000000000000000000000000000000000000000008,
#GOGOEND
0, //49
#GOGOSTART
301100,
101100,
22,
500000000000000000000000000008000000000000000000,
301100,
101100,
22,
500000000000000000000000000008000000000000000000, //57
#GOGOEND
1,
1,
1,
33,
0,
#BARLINEOFF
0, //63
#END