Files
TJA-by-song-no/tja/915.tja
2026-03-04 23:59:27 +09:00

254 lines
2.6 KiB
Plaintext

//TJADB Project
TITLE:Hakujitsu
TITLEJA:白日
SUBTITLE:--King Gnu/Innocence Enzai Bengoushi
BPM:93
WAVE:Hakujitsu.ogg
OFFSET:-2.704
DEMOSTART:69.767
COURSE:Oni
LEVEL:8
BALLOON:15,20
SCOREINIT:1020
SCOREDIFF:295
#START
1,
12,
1002,
12,
100002200202,
100002202202,
100202202202,
7008,
100000200102100200100020,
100000200102200200100020,
100000200102100200100020,
100000200102200200100020,
100000200102100200100200,
100000200102200200100202,
100000200102100200100200,
100000200102200200100202,
1000002000001000202000001000202000010100200100200,
102202102202002202102202,
002202102202002202102202,
000000201101002200001102,
200102202201002200100202,
102202102202002202102202,
002202102202002202102202,
000100200101001100200102,
000000001102200102200101,
500000000000000000000008000000000000000000000000,
#GOGOSTART
300300202101102200100200,
100202001102201100200102,
100200100202100201002102,
100202100202102002002000,
300300202101102202100201,
100202001101002202102202,
100200100202102202102002,
1020100111010220,
#GOGOEND
100000200102100200102200,
100000200102200200102200,
100000200102100200102200,
700000000000000000000000000000000000000000000008,
#END
COURSE:Hard
LEVEL:2
BALLOON:5,5,5,15
SCOREINIT:1340
SCOREDIFF:1190
#START
1,
11,
1002,
11,
1022,
1022,
1022,
500000000000000000000000000000000008000000000000,
1012,
1012,
1022,
1022,
1012,
1012,
1022,
5,
000000000000000000000008000000000000000000000000,
10201120,
10201220,
10201120,
30403440,
10201120,
10201220,
10201120,
30403440,
500000000000000000000008000000000000000000000000,
#GOGOSTART
33301210,
11101210,
12107080,
12107080,
33301210,
11101210,
12107080,
300000400000300000000000500000000000000000000008,
#GOGOEND
0002,
10002120,
10002120,
7,
8,
,
,
,
,
,
#END
COURSE:Normal
LEVEL:2
BALLOON:10
SCOREINIT:1600
SCOREDIFF:1178
#START
1,
11,
1,
11,
1011,
1011,
1,
500000000000000000000000000000000008000000000000,
,
1011,
1011,
12,
1011,
1011,
12,
5,
000000000000000000000008000000000000000000000000,
1120,
1120,
22,
3330,
1120,
1120,
22,
36,
000000000000000000000008000000000000000000000000,
#GOGOSTART
33,
1122,
1122,
1120,
33,
1122,
1122,
300000000000300000000000500000000000000000000008,
#GOGOEND
,
1021,
1,
7,
8,
,
,
,
,
,
#END
COURSE:Easy
LEVEL:2
BALLOON:10
SCOREINIT:1450
SCOREDIFF:1450
#START
1,
1,
1,
11,
1,
11,
1,
500000000000000000000000000000000008000000000000,
,
11,
1,
11,
1,
11,
1,
5,
000000000000000000000008000000000000000000000000,
1110,
1110,
2,
3330,
1110,
1110,
2,
36,
000000000000000000000008000000000000000000000000,
#GOGOSTART
33,
1110,
1120,
1120,
33,
1110,
1120,
100000000000100000000000500000000000000000000008,
#GOGOEND
,
12,
1,
7,
8,
,
,
,
,
,
#END