655 lines
8.1 KiB
Plaintext
655 lines
8.1 KiB
Plaintext
//TJADB Project
|
|
TITLE:Idol Berserker
|
|
TITLEJA:アイドル狂戦士(feat.佐藤貴文)
|
|
SUBTITLE:--Sena Horikoshi feat. Takafumi Sato/DEN-ON-BU
|
|
SUBTITLEJA:茅野ふたば(CV:堀越せな) 「電音部」より
|
|
BPM:195
|
|
WAVE:Idol Berserker.ogg
|
|
OFFSET:-1.337
|
|
DEMOSTART:60.401
|
|
|
|
COURSE:Edit
|
|
LEVEL:9
|
|
BALLOON:18
|
|
SCOREINIT:360
|
|
SCOREDIFF:85
|
|
|
|
|
|
#START
|
|
|
|
|
|
,
|
|
,
|
|
,
|
|
,
|
|
1011201012102010,
|
|
1010201022102020,
|
|
1011201012102010,
|
|
1020102011221020,
|
|
|
|
#GOGOSTART
|
|
3010111022102010,
|
|
1120112011202020,
|
|
1010111022102010,
|
|
2220112020112222,
|
|
1010111022102010,
|
|
1120112011202020,
|
|
1010111022102010,
|
|
500000000000000000000000000000000008000000000000,
|
|
|
|
#GOGOEND
|
|
1010201000102011,
|
|
1010201000222011,
|
|
1010201000102011,
|
|
11214040,
|
|
1010201010222020,
|
|
1010202011222020,
|
|
1010201012102010,
|
|
1022102011221120,
|
|
#GOGOSTART
|
|
3010111022102010,
|
|
1120112011202020,
|
|
1010111022102010,
|
|
2220112020112222,
|
|
1010111022102010,
|
|
1120112011202020,
|
|
1010111022102010,
|
|
500000000000000000000000000000000008000000000000,
|
|
|
|
#GOGOEND
|
|
1010201000102011,
|
|
1010201010202011,
|
|
1020001110200011,
|
|
1010201011222000,
|
|
1010201000102011,
|
|
11211020,
|
|
1000400030002222,
|
|
1000101011222211,
|
|
20202222,
|
|
20202222,
|
|
500000000000000000000000000000000000000008000000,
|
|
1220122012202000,
|
|
2020202022202220,
|
|
2020202222202220,
|
|
600000000000000000000000000000000000000008000000,
|
|
3000300030002222,
|
|
|
|
#GOGOSTART
|
|
1110201110112012,
|
|
1012201110404011,
|
|
1010201110102011,
|
|
1011201110404000,
|
|
1110201110112012,
|
|
1012201110404011,
|
|
1010201110102000,
|
|
33334444,
|
|
1110201110112012,
|
|
1012201110404011,
|
|
1010201110102011,
|
|
1011201110404000,
|
|
1110201110112012,
|
|
1011201110112110,
|
|
1010221110102211,
|
|
1010211020102110,
|
|
1020102011122010,
|
|
2010201022211020,
|
|
1020102011122010,
|
|
2011201110112020,
|
|
1020102011122010,
|
|
2010201022211020,
|
|
1020102011122030,
|
|
000000300000400000300000600000000000000008000000,
|
|
|
|
#GOGOEND
|
|
20202022,
|
|
0020202020000022,
|
|
2020002220200022,
|
|
22222000,
|
|
20202022,
|
|
0020202020000022,
|
|
2020002220200000,
|
|
11111111,
|
|
1212121270000000,
|
|
00000800,
|
|
|
|
#GOGOSTART
|
|
1111201110112212,
|
|
1012221110404011,
|
|
1011201110112011,
|
|
1011201110404000,
|
|
1111201110112212,
|
|
1011211110112111,
|
|
1011221110112211,
|
|
1011211020112110,
|
|
1020102011122010,
|
|
2010201022211020,
|
|
1020102011122010,
|
|
2211101122211020,
|
|
1020102011122010,
|
|
2010201022211020,
|
|
1020102011122030,
|
|
000000300000400000300000600000000000000000000008,
|
|
|
|
#GOGOEND
|
|
#MEASURE 2/4
|
|
,
|
|
|
|
#GOGOSTART
|
|
#MEASURE 4/4
|
|
3,
|
|
|
|
#GOGOEND
|
|
|
|
|
|
#END
|
|
|
|
|
|
COURSE:Oni
|
|
LEVEL:7
|
|
BALLOON:16
|
|
SCOREINIT:470
|
|
SCOREDIFF:123
|
|
|
|
|
|
#START
|
|
|
|
|
|
,
|
|
,
|
|
,
|
|
,
|
|
10101110,
|
|
10101122,
|
|
10101110,
|
|
12121122,
|
|
|
|
#GOGOSTART
|
|
3000111020100010,
|
|
12121202,
|
|
1000111020100010,
|
|
2020102020111020,
|
|
1000111020100010,
|
|
12121202,
|
|
1000111020100010,
|
|
500000000000000000000000000000000008000000000000,
|
|
|
|
#GOGOEND
|
|
10210201,
|
|
11210201,
|
|
11210112,
|
|
11014040,
|
|
1010201010222000,
|
|
1010201010222000,
|
|
11211121,
|
|
1022102010221000,
|
|
|
|
#GOGOSTART
|
|
3000111020100010,
|
|
12121202,
|
|
1000111020100010,
|
|
2020102020111020,
|
|
1000111020100010,
|
|
12121202,
|
|
1000111020100010,
|
|
500000000000000000000000000000000008000000000000,
|
|
|
|
#GOGOEND
|
|
10210121,
|
|
11211021,
|
|
1020001010200011,
|
|
11211220,
|
|
10210121,
|
|
11211020,
|
|
1432,
|
|
3000300011101000,
|
|
20202220,
|
|
20202220,
|
|
500000000000000000000000000000000000000008000000,
|
|
12121220,
|
|
20202222,
|
|
20202222,
|
|
600000000000000000000000000000000000000008000000,
|
|
3330,
|
|
|
|
#GOGOSTART
|
|
1000201110102010,
|
|
0010201110404010,
|
|
1010001010100011,
|
|
11211440,
|
|
1000201110102010,
|
|
0010201110404010,
|
|
11011100,
|
|
3344,
|
|
1000201110102010,
|
|
0010201110404010,
|
|
1010001010100011,
|
|
11211440,
|
|
1000201110102010,
|
|
0010201110102010,
|
|
11210121,
|
|
01212021,
|
|
1000100011101000,
|
|
2000200022202000,
|
|
1000100011101010,
|
|
01211021,
|
|
1000100011101000,
|
|
2000200022202000,
|
|
1000100011101060,
|
|
000000000000000000000000000000000008000000000000,
|
|
|
|
#GOGOEND
|
|
20202022,
|
|
02222002,
|
|
22022202,
|
|
22202000,
|
|
20202022,
|
|
02222002,
|
|
22022200,
|
|
10111011,
|
|
22227000,
|
|
00000800,
|
|
|
|
#GOGOSTART
|
|
1000201110102010,
|
|
0010201110404011,
|
|
1010001110100011,
|
|
11211440,
|
|
1000201110102010,
|
|
0010201110102010,
|
|
1110201000112010,
|
|
0011201120002010,
|
|
1000100011111000,
|
|
2000200022222000,
|
|
1000100011111010,
|
|
01211021,
|
|
1000100011111000,
|
|
2000200022222000,
|
|
1000100011111060,
|
|
000000000000000000000000000000000000000000000008,
|
|
|
|
#GOGOEND
|
|
#MEASURE 2/4
|
|
,
|
|
|
|
#GOGOSTART
|
|
#MEASURE 4/4
|
|
3,
|
|
|
|
#GOGOEND
|
|
|
|
|
|
#END
|
|
|
|
|
|
COURSE:Hard
|
|
LEVEL:5
|
|
BALLOON:22,16,12
|
|
SCOREINIT:530
|
|
SCOREDIFF:128
|
|
|
|
|
|
#START
|
|
|
|
|
|
,
|
|
,
|
|
,
|
|
,
|
|
11,
|
|
10102220,
|
|
11,
|
|
11102220,
|
|
#GOGOSTART
|
|
9,
|
|
0,
|
|
0000000800000000,
|
|
0,
|
|
1110,
|
|
10101110,
|
|
1110,
|
|
500000000000000000000000000000000008000000000000,
|
|
#GOGOEND
|
|
10110201,
|
|
11010201,
|
|
11020112,
|
|
11014040,
|
|
11102220,
|
|
10102220,
|
|
1212,
|
|
12121210,
|
|
#GOGOSTART
|
|
7,
|
|
08,
|
|
1110,
|
|
10102220,
|
|
1110,
|
|
10101110,
|
|
1110,
|
|
500000000000000000000000000000000008000000000000,
|
|
#GOGOEND
|
|
10210120,
|
|
11211001,
|
|
12011201,
|
|
21212000,
|
|
10210120,
|
|
11211020,
|
|
1432,
|
|
3330,
|
|
2220,
|
|
2220,
|
|
500000000000000000000000000000000000000000000008,
|
|
0,
|
|
2222,
|
|
2222,
|
|
6,
|
|
000000000000000000000000000008000000000000000000,
|
|
#GOGOSTART
|
|
10201021,
|
|
01211441,
|
|
11011102,
|
|
12101440,
|
|
10201021,
|
|
01211441,
|
|
11011100,
|
|
3344,
|
|
10201021,
|
|
01211441,
|
|
11011102,
|
|
12101440,
|
|
10201021,
|
|
02211221,
|
|
30210121,
|
|
01211021,
|
|
10101110,
|
|
20202220,
|
|
10101112,
|
|
01211021,
|
|
10101110,
|
|
20202220,
|
|
10101116,
|
|
000000000000000000000000000000000008000000000000,
|
|
#GOGOEND
|
|
22,
|
|
20202002,
|
|
22022200,
|
|
2220,
|
|
22,
|
|
20202002,
|
|
22022200,
|
|
10111010,
|
|
22227000,
|
|
00000800,
|
|
#GOGOSTART
|
|
10211021,
|
|
01211441,
|
|
11011102,
|
|
12101440,
|
|
10211122,
|
|
02211221,
|
|
30210121,
|
|
01211021,
|
|
10101111,
|
|
20202222,
|
|
10101112,
|
|
01211021,
|
|
10101111,
|
|
20202222,
|
|
10101116,
|
|
000000000000000000000000000000000000000000000008,
|
|
#GOGOEND
|
|
#MEASURE 2/4
|
|
0,
|
|
#GOGOSTART
|
|
#MEASURE 4/4
|
|
3,
|
|
#GOGOEND
|
|
,
|
|
,
|
|
#END
|
|
|
|
COURSE:1
|
|
LEVEL:4
|
|
BALLOON:18,12,5,5,10,5,5
|
|
SCOREINIT:710
|
|
SCOREDIFF:183
|
|
|
|
#START
|
|
0,
|
|
0,
|
|
0,
|
|
0,
|
|
1,
|
|
11,
|
|
1,
|
|
1011,
|
|
#GOGOSTART
|
|
9,
|
|
0,
|
|
0000000800000000,
|
|
0,
|
|
11,
|
|
1110,
|
|
11,
|
|
500000000000000000000000000000000008000000000000,
|
|
#GOGOEND
|
|
10010100,
|
|
10010100,
|
|
10010110,
|
|
1044,
|
|
1022,
|
|
1022,
|
|
1111,
|
|
10101110,
|
|
#GOGOSTART
|
|
7,
|
|
08,
|
|
11,
|
|
2220,
|
|
11,
|
|
1110,
|
|
11,
|
|
500000000000000000000000000000000008000000000000,
|
|
#GOGOEND
|
|
10010000,
|
|
1110,
|
|
12,
|
|
1110,
|
|
10010000,
|
|
1110,
|
|
14,
|
|
3330,
|
|
22,
|
|
22,
|
|
500000000000000000000000000000000000000000000008,
|
|
0,
|
|
2220,
|
|
2220,
|
|
6,
|
|
000000000000000000000000000008000000000000000000,
|
|
#GOGOSTART
|
|
1212,
|
|
11102000,
|
|
1112,
|
|
1120,
|
|
1212,
|
|
11102000,
|
|
1212,
|
|
3344,
|
|
1212,
|
|
11102000,
|
|
1112,
|
|
1120,
|
|
1212,
|
|
1122,
|
|
3,
|
|
1122,
|
|
700000000000000000000000000000080000000000000000,
|
|
22,
|
|
11,
|
|
1122,
|
|
700000000000000000000000000000080000000000000000,
|
|
22,
|
|
10001006,
|
|
000000000000000000000000000000000008000000000000,
|
|
#GOGOEND
|
|
2,
|
|
2,
|
|
22,
|
|
22,
|
|
2,
|
|
2,
|
|
22,
|
|
1111,
|
|
07,
|
|
00000800,
|
|
#GOGOSTART
|
|
1212,
|
|
11102000,
|
|
1112,
|
|
11102000,
|
|
1212,
|
|
11102220,
|
|
3,
|
|
11102220,
|
|
700000000000000000000000000000080000000000000000,
|
|
22,
|
|
11,
|
|
11102220,
|
|
700000000000000000000000000000080000000000000000,
|
|
22,
|
|
10001006,
|
|
000000000000000000000000000000000000000000000008,
|
|
#GOGOEND
|
|
#MEASURE 2/4
|
|
0,
|
|
#GOGOSTART
|
|
#MEASURE 4/4
|
|
3,
|
|
#GOGOEND
|
|
,
|
|
,
|
|
#END
|
|
|
|
COURSE:0
|
|
LEVEL:3
|
|
BALLOON:12,10,4,4,8,4,4
|
|
SCOREINIT:720
|
|
SCOREDIFF:233
|
|
|
|
#START
|
|
0,
|
|
0,
|
|
0,
|
|
0,
|
|
1,
|
|
1,
|
|
1,
|
|
11,
|
|
#GOGOSTART
|
|
9,
|
|
0,
|
|
0000000800000000,
|
|
0,
|
|
1,
|
|
11,
|
|
1,
|
|
500000000000000000000000000008000000000000000000,
|
|
#GOGOEND
|
|
1,
|
|
1,
|
|
1,
|
|
24,
|
|
1,
|
|
1,
|
|
11,
|
|
11,
|
|
#GOGOSTART
|
|
7,
|
|
08,
|
|
1,
|
|
22,
|
|
1,
|
|
11,
|
|
1,
|
|
500000000000000000000000000008000000000000000000,
|
|
#GOGOEND
|
|
1,
|
|
11,
|
|
1,
|
|
22,
|
|
1,
|
|
11,
|
|
14,
|
|
3330,
|
|
2,
|
|
2,
|
|
500000000000000000000000000000000000000000000008,
|
|
0,
|
|
2,
|
|
2,
|
|
6,
|
|
000000000000000000000000000008000000000000000000,
|
|
#GOGOSTART
|
|
11,
|
|
1110,
|
|
11,
|
|
22,
|
|
11,
|
|
1110,
|
|
11,
|
|
3333,
|
|
11,
|
|
1110,
|
|
11,
|
|
2220,
|
|
11,
|
|
2220,
|
|
3,
|
|
1110,
|
|
700000000000000000000000000000080000000000000000,
|
|
2,
|
|
1,
|
|
1110,
|
|
700000000000000000000000000000080000000000000000,
|
|
2,
|
|
10000006,
|
|
000000000000000000000000000008000000000000000000,
|
|
#GOGOEND
|
|
2,
|
|
2,
|
|
2,
|
|
22,
|
|
2,
|
|
2,
|
|
2,
|
|
1110,
|
|
07,
|
|
00000800,
|
|
#GOGOSTART
|
|
11,
|
|
1110,
|
|
11,
|
|
22,
|
|
11,
|
|
2220,
|
|
3,
|
|
1110,
|
|
700000000000000000000000000000080000000000000000,
|
|
2,
|
|
1,
|
|
1110,
|
|
700000000000000000000000000000080000000000000000,
|
|
2,
|
|
10000006,
|
|
000000000000000000000000000000000000000000000008,
|
|
#GOGOEND
|
|
#MEASURE 2/4
|
|
0,
|
|
#GOGOSTART
|
|
#MEASURE 4/4
|
|
3,
|
|
#GOGOEND
|
|
,
|
|
,
|
|
#END
|