955 lines
11 KiB
Plaintext
955 lines
11 KiB
Plaintext
//TJADB Project
|
|
TITLE:Vixtory
|
|
TITLEJA:Vixtory
|
|
SUBTITLE:--CHUBAY
|
|
SUBTITLEJA:CHUBAY
|
|
BPM:243
|
|
WAVE:Vixtory.ogg
|
|
OFFSET:-1.168
|
|
DEMOSTART:69.809
|
|
|
|
COURSE:Edit
|
|
LEVEL:10
|
|
BALLOON:12,15
|
|
SCOREINIT:800
|
|
SCOREDIFF:0
|
|
|
|
|
|
#START
|
|
|
|
|
|
#MEASURE 3/4
|
|
102220,
|
|
212220,
|
|
212220,
|
|
212220,
|
|
202220,
|
|
212220,
|
|
212220,
|
|
201120112011,
|
|
|
|
#MEASURE 4/4
|
|
100101122121,
|
|
2211112222112111,
|
|
221211122112,
|
|
111010211120102010202020,
|
|
3000000011111111,
|
|
111111111111200200200200,
|
|
300000111111,
|
|
3000000011111111,
|
|
|
|
2000300020120120,
|
|
1012112011012210,
|
|
2102102110102210,
|
|
200100100100200100100100200010001000200010001000,
|
|
2000300020120120,
|
|
1110221012112010,
|
|
200100000200100000200100101010100000101010100000,
|
|
2021201012101000,
|
|
|
|
2000300022212121,
|
|
2211221211121112,
|
|
2102112110112010,
|
|
2012102011112010,
|
|
2000300020120120,
|
|
1110221012112010,
|
|
2010211021102110,
|
|
200200100200200100100200500000000008000000000000,
|
|
|
|
#SCROLL 0.67
|
|
3000111120111010,
|
|
1020101010002222,
|
|
1010111120102020,
|
|
2110002220102210,
|
|
3000111120111110,
|
|
1020101010002222,
|
|
1000111120101210,
|
|
211100100222200100222100,
|
|
|
|
#MEASURE 5/4
|
|
70008,
|
|
|
|
#SCROLL 1
|
|
#MEASURE 3/4
|
|
101120201020,
|
|
201022112120,
|
|
100111200200100200,
|
|
200000100000200000200000200200101010,
|
|
101120201020,
|
|
201022112120,
|
|
#MEASURE 6/4
|
|
300003000030
|
|
000300002220,
|
|
|
|
#MEASURE 3/4
|
|
101120201020,
|
|
201022112120,
|
|
100111200200100200,
|
|
200000100000200000200000200200101010,
|
|
101120201020,
|
|
201022112120,
|
|
101210101210,
|
|
#MEASURE 4/4
|
|
1111201210101110,
|
|
|
|
30102222,
|
|
02020202,
|
|
20020020,
|
|
02222122,
|
|
10102222,
|
|
02020202,
|
|
10202221,
|
|
0000101020222020,
|
|
|
|
30101210,
|
|
3000112010001000,
|
|
300000111200300000111200,
|
|
300000111200300000111100,
|
|
4000111211122221,
|
|
2221111222111222,
|
|
100100100100101010101010,
|
|
100100100100100100100100101010101010101010102020,
|
|
|
|
,
|
|
2000000011112222,
|
|
|
|
#GOGOSTART
|
|
1011202011102010,
|
|
2012112212211020,
|
|
2010122022112111,
|
|
200000101010100000200000000000100000100100100100,
|
|
100000100100200000100000200000100200101010200000,
|
|
1011201011112010,
|
|
200000100200101010200000100000100000200200100000,
|
|
400111100400111100400000,
|
|
|
|
300000101010200000200000100100100200200000100000,
|
|
2012112012112020,
|
|
411111411111,
|
|
411111411221,
|
|
0000301120121122,
|
|
1012201011112210,
|
|
2011201120112011,
|
|
200111200111200111200111,
|
|
|
|
2111211121112111,
|
|
201010201010221111221111,
|
|
#GOGOEND
|
|
|
|
2000100020020050,
|
|
000000000000000000000000000000000000000008000000,
|
|
200000000200000000500000000000000000000008000000,
|
|
21122112,
|
|
0000100020020050,
|
|
000000000000000000000000000000000000000008000000,
|
|
200000000200000000500000000000000000000008000000,
|
|
200200211211,
|
|
|
|
300111201101,
|
|
101001200111,
|
|
101201101001,
|
|
221201211211,
|
|
300200201207,
|
|
0008,
|
|
101101201202,
|
|
100010101110201120201220,
|
|
|
|
2,
|
|
2,
|
|
|
|
30220121,
|
|
2012012012211020,
|
|
2110302022104010,
|
|
200000101010100000400000000000100100101010101010,
|
|
#GOGOSTART
|
|
100000100200200000100000200000100200101010200000,
|
|
1012201011122011,
|
|
200000100200101010200000100200100100200200100000,
|
|
400111100400111100400100,
|
|
|
|
300000101010200000200000100100100200200200100000,
|
|
2012112012112120,
|
|
411112411122,
|
|
411222421221,
|
|
0000301220121122,
|
|
1111211122112211,
|
|
101010201110101010201110,
|
|
#GOGOEND
|
|
222212100100,
|
|
|
|
#GOGOSTART
|
|
3000100020020050,
|
|
000000000000000000000000000000000000000008000000,
|
|
200000000200000000500000000000000000000008000000,
|
|
300300211211,
|
|
3000100020020050,
|
|
000000000000000000000000000000000000000008000000,
|
|
200000000200000000500000000000000000000008000000,
|
|
2112112122122122,
|
|
#GOGOEND
|
|
|
|
100100200200200100100200100202020100200200100200,
|
|
202010100200100200200100101010200200100100100200,
|
|
00404430,
|
|
30346084,
|
|
|
|
|
|
#END
|
|
|
|
|
|
COURSE:Oni
|
|
LEVEL:10
|
|
BALLOON:5,9,15
|
|
SCOREINIT:1080
|
|
SCOREDIFF:0
|
|
|
|
|
|
#START
|
|
|
|
|
|
#MEASURE 3/4
|
|
102220,
|
|
202220,
|
|
202220,
|
|
202220,
|
|
202220,
|
|
202220,
|
|
202220,
|
|
222,
|
|
|
|
#MEASURE 4/4
|
|
100100100202,
|
|
202200202022,
|
|
202200202022,
|
|
202200202020,
|
|
3000000011111111,
|
|
70082222,
|
|
300000111111,
|
|
300000000000000000000000500000000000000000000008,
|
|
|
|
0000300020020020,
|
|
1011201011012010,
|
|
2002002010102010,
|
|
400400211211,
|
|
2000300020121020,
|
|
10211121,
|
|
2012102010102010,
|
|
2012102012102000,
|
|
|
|
2000300022102210,
|
|
1110111022102210,
|
|
2002002011102010,
|
|
2002002011102010,
|
|
2000300020020020,
|
|
10211121,
|
|
21212121,
|
|
200100100000200100100000500000000008000000000000,
|
|
|
|
#SCROLL 0.67
|
|
3000111020001000,
|
|
10111020,
|
|
1000111020101000,
|
|
21022022,
|
|
3000111020001000,
|
|
10111020,
|
|
1000111020101000,
|
|
21022122,
|
|
|
|
#MEASURE 5/4
|
|
70008,
|
|
|
|
#MEASURE 3/4
|
|
#SCROLL 1
|
|
101120201020,
|
|
212212,
|
|
101120201020,
|
|
201020202210,
|
|
101120201020,
|
|
212212,
|
|
#MEASURE 6/4
|
|
300003000030
|
|
000300002020,
|
|
|
|
#MEASURE 3/4
|
|
101120201020,
|
|
212212,
|
|
101120201020,
|
|
201020202210,
|
|
101120201020,
|
|
212212,
|
|
112112,
|
|
#MEASURE 4/4
|
|
1111201010101110,
|
|
|
|
30002222,
|
|
02020202,
|
|
20020020,
|
|
02222122,
|
|
10002222,
|
|
02020202,
|
|
10202221,
|
|
00112222,
|
|
|
|
3,
|
|
30020020,
|
|
33,
|
|
33,
|
|
4000222020202020,
|
|
2220202220202020,
|
|
42222222,
|
|
500000000000000000000000000000000008000000100000,
|
|
|
|
12220221,
|
|
2000000011112000,
|
|
|
|
#GOGOSTART
|
|
1010201011102010,
|
|
2012102011111020,
|
|
2010221020102210,
|
|
2011202000101111,
|
|
1000201020121020,
|
|
1010201011112010,
|
|
2012102020102210,
|
|
4011104011104000,
|
|
|
|
3010202011102010,
|
|
2012102012102020,
|
|
411111411111,
|
|
411111411221,
|
|
0000300020121020,
|
|
1010201011102010,
|
|
2011201120112011,
|
|
2011201120112011,
|
|
|
|
2111211121112111,
|
|
200010001000200010001000500000000000000008000000,
|
|
#GOGOEND
|
|
|
|
2000100020020050,
|
|
000000000000000000000000000000000000000008000000,
|
|
200000000200000000500000000000000000000008000000,
|
|
21122112,
|
|
0000100020020050,
|
|
000000000000000000000000000000000000000008000000,
|
|
200000000200000000500000000000000000000008000000,
|
|
200200211211,
|
|
|
|
300111201101,
|
|
101001200111,
|
|
101201101001,
|
|
221201211211,
|
|
300200201207,
|
|
0008,
|
|
101101101201,
|
|
101101201202,
|
|
|
|
2,
|
|
2,
|
|
|
|
3,
|
|
2,
|
|
2323,
|
|
2011104000112211,
|
|
#GOGOSTART
|
|
1010201020121020,
|
|
1010201011102000,
|
|
2011211020112110,
|
|
4011104011104000,
|
|
|
|
3010202011102010,
|
|
2012102012102020,
|
|
411111411111,
|
|
411111411221,
|
|
0000101120121120,
|
|
2111211122112211,
|
|
111211111211,
|
|
#GOGOEND
|
|
2011,
|
|
|
|
#GOGOSTART
|
|
3000100020020050,
|
|
000000000000000000000000000000000000000008000000,
|
|
200000000200000000500000000000000000000008000000,
|
|
300300211211,
|
|
3000100020020050,
|
|
000000000000000000000000000000000000000008000000,
|
|
200000000200000000500000000000000000000008000000,
|
|
2012102020212020,
|
|
#GOGOEND
|
|
|
|
1111211111112211,
|
|
2211112211221112,
|
|
00404430,
|
|
30346084,
|
|
|
|
|
|
#END
|
|
|
|
|
|
COURSE:Hard
|
|
LEVEL:7
|
|
BALLOON:40,9,26,8
|
|
SCOREINIT:1820
|
|
SCOREDIFF:0
|
|
|
|
|
|
#START
|
|
|
|
|
|
#MEASURE 3/4
|
|
102220,
|
|
202220,
|
|
202220,
|
|
202220,
|
|
202220,
|
|
202220,
|
|
202220,
|
|
222,
|
|
|
|
#MEASURE 4/4
|
|
1700,
|
|
,
|
|
,
|
|
00000800,
|
|
35,
|
|
000000000008000000000000000000000000000000000000,
|
|
300000111100,
|
|
300000000000000000000000500000000000000000000008,
|
|
|
|
0000300020020020,
|
|
10211020,
|
|
2002002010102000,
|
|
4444,
|
|
2000300020020020,
|
|
10211020,
|
|
2002002010002000,
|
|
22211120,
|
|
|
|
20302021,
|
|
10112120,
|
|
2002002010102000,
|
|
2002002010002000,
|
|
2000300020020020,
|
|
10201120,
|
|
2222,
|
|
200000100000200000100000500000000008000000000000,
|
|
|
|
#SCROLL 0.67
|
|
30112010,
|
|
10111020,
|
|
10112110,
|
|
21022020,
|
|
30112010,
|
|
10111020,
|
|
10112110,
|
|
21021021,
|
|
|
|
#MEASURE 5/4
|
|
70008,
|
|
|
|
#MEASURE 3/4
|
|
#SCROLL 1
|
|
102212,
|
|
202212,
|
|
102212,
|
|
202222,
|
|
102212,
|
|
202212,
|
|
#MEASURE 6/4
|
|
300003000030
|
|
000300002020,
|
|
|
|
#MEASURE 3/4
|
|
102212,
|
|
202212,
|
|
102212,
|
|
202222,
|
|
102212,
|
|
202212,
|
|
112112,
|
|
#MEASURE 4/4
|
|
11211211,
|
|
|
|
30002022,
|
|
02020202,
|
|
20020020,
|
|
02202022,
|
|
10002222,
|
|
02020202,
|
|
10202222,
|
|
00102222,
|
|
|
|
3,
|
|
30020020,
|
|
33,
|
|
33,
|
|
4900,
|
|
,
|
|
,
|
|
,
|
|
|
|
9,
|
|
8,
|
|
|
|
#GOGOSTART
|
|
11210121,
|
|
2002002002001010,
|
|
21212111,
|
|
20220110,
|
|
1000201020020020,
|
|
11211121,
|
|
2002002020101000,
|
|
40040040,
|
|
|
|
30220120,
|
|
2001002001002020,
|
|
4141,
|
|
4141,
|
|
0000300020020020,
|
|
11211120,
|
|
1212,
|
|
1212,
|
|
|
|
21212121,
|
|
111100222200,
|
|
#GOGOEND
|
|
|
|
2000100020020050,
|
|
000000000000000000000000000000000000000008000000,
|
|
200000000200000000500000000000000000000008000000,
|
|
20222022,
|
|
0000100020020050,
|
|
000000000000000000000000000000000000000008000000,
|
|
200000000200000000500000000000000000000008000000,
|
|
2222,
|
|
|
|
300100201100,
|
|
101001200100,
|
|
100100201001,
|
|
200201200200,
|
|
3,
|
|
1,
|
|
101101101101,
|
|
101101101101,
|
|
|
|
2,
|
|
2,
|
|
|
|
3,
|
|
,
|
|
0303,
|
|
20240000,
|
|
#GOGOSTART
|
|
1000201020020020,
|
|
11211121,
|
|
2002002020101000,
|
|
40040040,
|
|
|
|
30220120,
|
|
2001002001002020,
|
|
4141,
|
|
4141,
|
|
0000300020020020,
|
|
11211120,
|
|
2222,
|
|
#GOGOEND
|
|
2,
|
|
|
|
#GOGOSTART
|
|
3000100020020050,
|
|
000000000000000000000000000000000000000008000000,
|
|
200000000200000000500000000000000000000008000000,
|
|
3322,
|
|
3000100020020050,
|
|
000000000000000000000000000000000000000008000000,
|
|
200000000200000000500000000000000000000008000000,
|
|
21221220,
|
|
#GOGOEND
|
|
|
|
5,
|
|
000000000000000000000000000000000000000000000008,
|
|
0900,
|
|
0098,
|
|
|
|
|
|
#END
|
|
|
|
|
|
COURSE:Normal
|
|
LEVEL:7
|
|
BALLOON:21,7,12,4
|
|
SCOREINIT:2700
|
|
SCOREDIFF:0
|
|
|
|
|
|
#START
|
|
|
|
|
|
#MEASURE 3/4
|
|
1,
|
|
2,
|
|
2,
|
|
2,
|
|
2,
|
|
2,
|
|
2,
|
|
222,
|
|
|
|
#MEASURE 4/4
|
|
0700,
|
|
,
|
|
,
|
|
00000800,
|
|
35,
|
|
000000000008000000000000000000000000000000000000,
|
|
300000000000000000000000500000000000000000000008,
|
|
000000000000000000000000600000000000000008000000,
|
|
|
|
0120,
|
|
1212,
|
|
2212,
|
|
4444,
|
|
0120,
|
|
1212,
|
|
2212,
|
|
22011020,
|
|
|
|
0121,
|
|
10102220,
|
|
2212,
|
|
2122,
|
|
0120,
|
|
10201110,
|
|
2222,
|
|
500000000000000000000000000000000008000000000000,
|
|
|
|
#SCROLL 0.67
|
|
3022,
|
|
1110,
|
|
10102220,
|
|
20020020,
|
|
3022,
|
|
1110,
|
|
10111010,
|
|
20020020,
|
|
|
|
#MEASURE 5/4
|
|
70008,
|
|
|
|
#MEASURE 3/4
|
|
#SCROLL 1
|
|
122,
|
|
211,
|
|
122,
|
|
211,
|
|
122,
|
|
211,
|
|
#MEASURE 6/4
|
|
300003000030
|
|
000300002000,
|
|
|
|
#MEASURE 3/4
|
|
122,
|
|
211,
|
|
122,
|
|
211,
|
|
122,
|
|
211,
|
|
5,
|
|
#MEASURE 4/4
|
|
000000000000000000000000000008000000000000000000,
|
|
|
|
30002002,
|
|
02020202,
|
|
20020020,
|
|
,
|
|
10002002,
|
|
02020202,
|
|
20002022,
|
|
00102220,
|
|
|
|
3,
|
|
3,
|
|
33,
|
|
33,
|
|
4900,
|
|
,
|
|
,
|
|
,
|
|
|
|
9,
|
|
8,
|
|
|
|
#GOGOSTART
|
|
10102220,
|
|
10101110,
|
|
20201110,
|
|
500000000000000000000000000000000008000000000000,
|
|
1212,
|
|
10201110,
|
|
10201110,
|
|
40040040,
|
|
|
|
3212,
|
|
11101110,
|
|
4141,
|
|
4141,
|
|
0120,
|
|
11101110,
|
|
1111,
|
|
1111,
|
|
|
|
11101110,
|
|
22202220,
|
|
#GOGOEND
|
|
|
|
2,
|
|
2,
|
|
2,
|
|
20202022,
|
|
2,
|
|
2,
|
|
2,
|
|
2222,
|
|
|
|
3121,
|
|
12,
|
|
1120,
|
|
2222,
|
|
3,
|
|
1,
|
|
1111,
|
|
1111,
|
|
|
|
2,
|
|
2,
|
|
|
|
3,
|
|
,
|
|
0303,
|
|
60000800,
|
|
#GOGOSTART
|
|
1212,
|
|
10201110,
|
|
10201110,
|
|
40040040,
|
|
|
|
3212,
|
|
11101110,
|
|
4141,
|
|
4141,
|
|
0120,
|
|
11101110,
|
|
2222,
|
|
#GOGOEND
|
|
2,
|
|
|
|
#GOGOSTART
|
|
0120,
|
|
10101110,
|
|
1212,
|
|
1122,
|
|
0120,
|
|
10101110,
|
|
1212,
|
|
10020020,
|
|
#GOGOEND
|
|
|
|
5,
|
|
000000000000000000000000000000000000000000000008,
|
|
0900,
|
|
0098,
|
|
|
|
|
|
#END
|
|
|
|
|
|
COURSE:Easy
|
|
LEVEL:5
|
|
BALLOON:16,8,2
|
|
SCOREINIT:4240
|
|
SCOREDIFF:0
|
|
|
|
|
|
#START
|
|
|
|
|
|
#MEASURE 3/4
|
|
1,
|
|
,
|
|
2,
|
|
,
|
|
2,
|
|
,
|
|
2,
|
|
2,
|
|
|
|
#MEASURE 4/4
|
|
0700,
|
|
,
|
|
,
|
|
00000800,
|
|
35,
|
|
000000000008000000000000000000000000000000000000,
|
|
300000000000000000000000500000000000000000000008,
|
|
000000000000000000000000600000000000000008000000,
|
|
|
|
0220,
|
|
1110,
|
|
1210,
|
|
3333,
|
|
0220,
|
|
1110,
|
|
1210,
|
|
10010020,
|
|
|
|
0220,
|
|
1110,
|
|
1210,
|
|
1112,
|
|
0220,
|
|
1110,
|
|
1111,
|
|
500000000000000000000008000000000000000000000000,
|
|
|
|
#SCROLL 0.67
|
|
32,
|
|
1110,
|
|
11,
|
|
20020020,
|
|
32,
|
|
1110,
|
|
11,
|
|
20020020,
|
|
|
|
#MEASURE 5/4
|
|
,
|
|
|
|
#MEASURE 3/4
|
|
#SCROLL 1
|
|
1,
|
|
2,
|
|
1,
|
|
2,
|
|
1,
|
|
2,
|
|
#MEASURE 6/4
|
|
300003000030
|
|
000300000000,
|
|
|
|
#MEASURE 3/4
|
|
1,
|
|
2,
|
|
1,
|
|
2,
|
|
1,
|
|
2,
|
|
5,
|
|
#MEASURE 4/4
|
|
000000000000000000000000000008000000000000000000,
|
|
|
|
3,
|
|
,
|
|
20020020,
|
|
,
|
|
1,
|
|
,
|
|
20002002,
|
|
02,
|
|
|
|
3,
|
|
3,
|
|
33,
|
|
33,
|
|
4900,
|
|
,
|
|
,
|
|
,
|
|
|
|
9,
|
|
8,
|
|
|
|
#GOGOSTART
|
|
11,
|
|
1210,
|
|
1110,
|
|
500000000000000000000000000008000000000000000000,
|
|
0220,
|
|
1210,
|
|
10010000,
|
|
40040040,
|
|
|
|
31,
|
|
1110,
|
|
44,
|
|
44,
|
|
0220,
|
|
1110,
|
|
1111,
|
|
1110,
|
|
|
|
2222,
|
|
2220,
|
|
#GOGOEND
|
|
|
|
2,
|
|
2,
|
|
2,
|
|
22,
|
|
2,
|
|
2,
|
|
2,
|
|
22,
|
|
|
|
32,
|
|
12,
|
|
12,
|
|
2220,
|
|
3,
|
|
1,
|
|
1111,
|
|
1110,
|
|
|
|
2,
|
|
2,
|
|
|
|
3,
|
|
,
|
|
0303,
|
|
60000800,
|
|
#GOGOSTART
|
|
2220,
|
|
1210,
|
|
10010000,
|
|
40040040,
|
|
|
|
31,
|
|
1110,
|
|
44,
|
|
44,
|
|
0220,
|
|
1110,
|
|
2222,
|
|
#GOGOEND
|
|
2,
|
|
|
|
#GOGOSTART
|
|
0220,
|
|
1110,
|
|
1210,
|
|
1120,
|
|
0220,
|
|
1110,
|
|
1210,
|
|
10010010,
|
|
#GOGOEND
|
|
|
|
5,
|
|
000000000000000000000000000000000000000000000008,
|
|
0900,
|
|
0098,
|
|
|
|
|
|
#END
|
|
|