425 lines
15 KiB
Plaintext
425 lines
15 KiB
Plaintext
//TJADB Project
|
||
TITLE:Venom
|
||
TITLEJA:ベノム(feat. flower)
|
||
SUBTITLE:--Kairiki Bear feat. flower
|
||
BPM:152
|
||
WAVE:Venom.ogg
|
||
OFFSET:-1.629
|
||
DEMOSTART:61.423
|
||
|
||
COURSE:Oni
|
||
LEVEL:8
|
||
BALLOON:16,5,12
|
||
SCOREINIT:1740
|
||
SCOREDIFF:0
|
||
|
||
|
||
#START
|
||
|
||
|
||
#MEASURE 1/4
|
||
#BARLINEOFF
|
||
300000000000,
|
||
|
||
#GOGOSTART
|
||
#MEASURE 4/4
|
||
#BARLINEON
|
||
100000200000100000200000100000100200000000100000,
|
||
000000100100200000100000100000000000400000000000,
|
||
100000200000100000200000100000100200000000100000,
|
||
000000100100200000100000100000000000400000000000,
|
||
100000200000100000200000100000100200000000100000,
|
||
000000100100200000100000100000000000400000000000,
|
||
100000200000100000200000100000100200000000100000,
|
||
000000100100200000100000100000000000400000000000,
|
||
|
||
#GOGOEND
|
||
100000200100100000200000100000100200000000100100,
|
||
200000100000200000100000100000400000000000400000,
|
||
100000200100100000200000100000100200000000100100,
|
||
200000100000200000100000100000400000400000000000,
|
||
200000200000200000000000200000200200200000200200,
|
||
200000100200100000200200200000200200200000200000,
|
||
100000200100100000200000100000100200000000100100,
|
||
200000100000200000100000100000000000400000000000,
|
||
|
||
#GOGOSTART
|
||
100000200000100000200000100000100200000000100000,
|
||
000000100100200000100000100000000000400000000000,
|
||
100000200000100000200000100000100200000000100000,
|
||
000000100100200000100000100000000000400000000000,
|
||
|
||
#GOGOEND
|
||
100000100200100000200000100000100200000000100100,
|
||
200000100000200000100000100000400000000000400000,
|
||
100000200100100000200000100000100200000000100100,
|
||
200000100000200000100000100000400000400000000000,
|
||
200000200000200000000000200200200000200000100000,
|
||
200000200200200000100100100000200200200000200000,
|
||
100000200100100000200000100000100200000000100100,
|
||
200000100000200000100000100000400000400000100100,
|
||
200000200000100000200000100000400000400000100100,
|
||
200000100000100200100000100000400000400000000000,
|
||
100000200200100100200000100000400000400000100100,
|
||
200000200000100000200000100000400000400000000000,
|
||
100100200200100100200000100000400000400000100100,
|
||
200000200000100100200000300000400000300000400000,
|
||
700000000000000000000000000000000000000000800000,
|
||
300000400000300000400000300000000000000000000000,
|
||
400000000000400000000000400000200200100000200000,
|
||
300000400000300000400000300000200000100000200000,
|
||
#GOGOSTART
|
||
100000200200100000200000100000200200100100200000,
|
||
100000200000100000100100000000200000200000200000,
|
||
100000100100200000200000100000100100200000200000,
|
||
100000200100200100200000100000200100100100200000,
|
||
100000200200100000200000100000200200100100200000,
|
||
100000200000100000100100000000200000200000200000,
|
||
300000000000400000000000300000000000400000000000,
|
||
300000300000300000300000700000000000000000800000,
|
||
|
||
#GOGOEND
|
||
100000200200100000200100100000200100100100200000,
|
||
100100200000100000200100000000200000100000200000,
|
||
100100200000100100200000200100100100200100000100,
|
||
100000200100000100200000100000200100100100200000,
|
||
200100200000200100200000200100200000200100200000,
|
||
100000200100000000200000100000100000200200200000,
|
||
100000200100100000200000100000100000200200200000,
|
||
700000000000000000000000000000000000000000800000,
|
||
300000000000000000000000100000000000000000000000,
|
||
100000000000000000000000000000200200200000000000,
|
||
000000000000000000000000000000100100200000000000,
|
||
300000300000300000300000300000000000000000000000,
|
||
|
||
#GOGOSTART
|
||
100000200200100000200000100000200200100100200000,
|
||
200200100000200000200100000000200000200000200000,
|
||
300000000000400000000000300000000000400000000000,
|
||
300000000000400000000000300000000000400000000000,
|
||
100000200200100000200000100000200200100100200000,
|
||
100000200000100000100100000000200000200000200000,
|
||
100000100100200000200000100000100100200000200000,
|
||
100000200100200100200000100000200100100100200000,
|
||
100000200200100000200000100000200200100100200000,
|
||
100000200000100000100100000000200000200000200000,
|
||
300000000000400000000000300000000000400000000000,
|
||
300000300000300000300000300000200200200000000000,
|
||
300000300000300000300000300000200200200000000000,
|
||
300000400000400000300000300000000000400000000000,
|
||
|
||
#GOGOEND
|
||
|
||
|
||
#END
|
||
|
||
|
||
COURSE:Hard
|
||
LEVEL:6
|
||
BALLOON:10,10
|
||
SCOREINIT:2490
|
||
SCOREDIFF:0
|
||
|
||
|
||
#START
|
||
|
||
|
||
#MEASURE 1/4
|
||
#BARLINEOFF
|
||
300000000000,
|
||
|
||
#GOGOSTART
|
||
#MEASURE 4/4
|
||
#BARLINEON
|
||
100000000000100000000000200000000100000000100000,
|
||
000000200000200000100000100000000000400000000000,
|
||
100000000000100000000000200000000100000000100000,
|
||
000000200000200000100000100000000000400000000000,
|
||
100000000000100000000000200000000100000000100000,
|
||
000000200000200000100000100000000000400000000000,
|
||
100000000000100000000000200000000100000000100000,
|
||
000000200000200000100000100000000000400000000000,
|
||
|
||
#GOGOEND
|
||
100000000000100000200000100000000100000000100000,
|
||
100000100000200000100000100000000000000000000000,
|
||
100000000000100000200000100000000100000000100000,
|
||
100000100000200000100000100000000000000000000000,
|
||
200000200000200000000000200000000000200000000000,
|
||
200000100000200000000000200000200000200000000000,
|
||
100000000000100000200000100000000100000000100000,
|
||
100000100000200000100000100000000000000000000000,
|
||
|
||
#GOGOSTART
|
||
100000000000100000000000200000000100000000100000,
|
||
000000200000200000100000100000000000400000000000,
|
||
100000000000100000000000200000000100000000100000,
|
||
000000200000200000100000100000000000400000000000,
|
||
|
||
#GOGOEND
|
||
100000000000100000200000100000000100000000100000,
|
||
100000100000200000100000100000000000000000000000,
|
||
100000000000100000200000100000000100000000100000,
|
||
100000100000200000100000100000000000000000000000,
|
||
200000200000200000000000200000200000200000000000,
|
||
200000100000200000000000200000200000200000000000,
|
||
100000000000100000200000100000000100000000100000,
|
||
100000100000200000100000100000000000000000000000,
|
||
100000100000100000200000100000000000000000000000,
|
||
100000100000100100100000100000000000000000000000,
|
||
100000100000100100100000100000000000000000000000,
|
||
100000100000200000200000100000000000000000000000,
|
||
100000100000100100100000100000000000000000000000,
|
||
100000100000100100100000100000200000100000200000,
|
||
700000000000000000000000000000000000000800000000,
|
||
300000400000300000400000300000000000000000000000,
|
||
400000000000400000000000400000200200200000200000,
|
||
300000400000300000400000300000000000000000000000,
|
||
|
||
#GOGOSTART
|
||
100000100000200000200000100000200000100000200000,
|
||
100000100000100000100100000000200000200000000000,
|
||
100000000000200000000000100000000000200000000000,
|
||
100000100100100000100000100000000000200000000000,
|
||
100000100000200000200000100000200000100000200000,
|
||
100000100000100000100100000000200000200000000000,
|
||
300000000000400000000000300000000000400000000000,
|
||
300000300000300000300000300000000000000000000000,
|
||
|
||
#GOGOEND
|
||
100000100000200000200000100000100000100000000000,
|
||
100000000000100000100100000000200000200000000000,
|
||
100000200000100000200000100000100000100100000100,
|
||
100000000100000000100000200000000000200000000000,
|
||
100000100000100100100000100000100000100100100000,
|
||
100000000200000000100000100000100000200000000000,
|
||
100000200000200000100000100000200000200000000000,
|
||
700000000000000000000000000000000000000800000000,
|
||
300000000000000000000000100000000000000000000000,
|
||
100000000000000000000000000000200200200000000000,
|
||
000000000000000000000000000000100100100000000000,
|
||
300000300000300000300000300000000000000000000000,
|
||
|
||
#GOGOSTART
|
||
100000100000200000200000100000200000100000200000,
|
||
200000000000200000200200000000200000200000000000,
|
||
300000000000400000000000300000000000400000000000,
|
||
300000000000400000000000300000000000400000000000,
|
||
100000100000200000200000100000200000100000200000,
|
||
100000100000100000100100000000200000200000000000,
|
||
100000000000200000000000100000000000200000000000,
|
||
100000100100100000100000100000000000200000000000,
|
||
100000100000200000200000100000200000100000200000,
|
||
100000100000100000100100000000200000200000000000,
|
||
300000000000400000000000300000000000400000000000,
|
||
300000300000300000300000300000000000000000000000,
|
||
300000300000300000300000300000000000000000000000,
|
||
300000300000300000300000300000000000400000000000,
|
||
#GOGOEND
|
||
|
||
|
||
#END
|
||
|
||
|
||
COURSE:Normal
|
||
LEVEL:4
|
||
BALLOON:8,8
|
||
SCOREINIT:4130
|
||
SCOREDIFF:0
|
||
|
||
|
||
#START
|
||
|
||
|
||
#MEASURE 1/4
|
||
#BARLINEOFF
|
||
000000000000,
|
||
|
||
#GOGOSTART
|
||
#MEASURE 4/4
|
||
#BARLINEON
|
||
100000000000000000000000200000000000000000100000,
|
||
000000000000100000000000100000000000000000000000,
|
||
100000000000000000000000200000000000000000100000,
|
||
000000000000100000000000100000000000000000000000,
|
||
100000000000000000000000200000000000000000100000,
|
||
000000000000100000000000100000000000000000000000,
|
||
100000000000000000000000200000000000000000100000,
|
||
000000000000100000000000100000000000000000000000,
|
||
#GOGOEND
|
||
100000000000000000000000100000000000000000000000,
|
||
100000000000100000100000100000000000000000000000,
|
||
100000000000000000000000100000000000000000000000,
|
||
100000000000100000100000100000000000000000000000,
|
||
200000000000000000000000200000000000200000000000,
|
||
200000000000000000000000200000000000200000000000,
|
||
100000000000000000000000100000000000000000000000,
|
||
100000000000100000100000100000000000000000000000,
|
||
#GOGOSTART
|
||
100000000000000000000000200000000000000000100000,
|
||
000000000000100000000000100000000000000000000000,
|
||
100000000000000000000000200000000000000000100000,
|
||
000000000000100000000000100000000000000000000000,
|
||
#GOGOEND
|
||
100000000000000000000000100000000000000000000000,
|
||
100000000000100000100000100000000000000000000000,
|
||
100000000000000000000000100000000000000000000000,
|
||
100000000000100000100000100000000000000000000000,
|
||
200000000000000000000000200000000000200000000000,
|
||
200000000000000000000000200000000000200000000000,
|
||
100000000000000000000000100000000000000000000000,
|
||
100000000000100000100000100000000000000000000000,
|
||
100000100000100000000000100000000000000000000000,
|
||
100000100000100000000000100000000000000000000000,
|
||
200000200000200000000000200000000000000000000000,
|
||
200000200000200000000000200000000000000000000000,
|
||
100000100000100000000000100000000000000000000000,
|
||
100000100000100000000000100000100000100000000000,
|
||
700000000000000000000000000000000000800000000000,
|
||
300000000000300000000000300000000000000000000000,
|
||
400000000000400000000000400000000000000000000000,
|
||
300000400000300000400000300000000000000000000000,
|
||
#GOGOSTART
|
||
100000000000100000000000100000100000100000000000,
|
||
100000000000100000000100000000000000000000000000,
|
||
100000000000200000000000100000000000200000000000,
|
||
100000000000100000100000100000000000100000000000,
|
||
100000000000100000000000100000100000100000000000,
|
||
100000000000100000000100000000000000000000000000,
|
||
300000000000400000000000300000000000400000000000,
|
||
300000000000300000000000300000000000000000000000,
|
||
#GOGOEND
|
||
100000000000100000000000100000100000100000000000,
|
||
100000000000100000000100000000000000000000000000,
|
||
100000000000200000000000100000100000100000000000,
|
||
100000000100000000000000200000000000200000000000,
|
||
100000000000200000000000100000000000200000000000,
|
||
100000000100000000100000100000000000200000000000,
|
||
100000000000100000000000100000100000100000000000,
|
||
700000000000000000000000000000000000000800000000,
|
||
300000000000000000000000000000000000000000000000,
|
||
100000000000000000000000000000000000200000000000,
|
||
000000000000000000000000000000000000100000000000,
|
||
300000300000300000300000300000000000000000000000,
|
||
#GOGOSTART
|
||
100000000000100000000000100000100000100000000000,
|
||
200000000000200000000200000000000000000000000000,
|
||
300000000000400000000000300000000000400000000000,
|
||
300000000000400000000000300000000000400000000000,
|
||
100000000000100000000000100000100000100000000000,
|
||
100000000000100000000100000000000000000000000000,
|
||
100000000000200000000000100000000000200000000000,
|
||
100000000000100000100000100000000000200000000000,
|
||
100000000000100000000000100000100000100000000000,
|
||
100000000000100000000100000000000000000000000000,
|
||
300000000000400000000000300000000000400000000000,
|
||
300000000000300000000000300000000000000000000000,
|
||
300000000000300000000000300000000000000000000000,
|
||
300000000000300000000000300000000000400000000000,
|
||
#GOGOEND
|
||
|
||
|
||
#END
|
||
|
||
|
||
COURSE:Easy
|
||
LEVEL:2
|
||
BALLOON:5,5
|
||
SCOREINIT:7300
|
||
SCOREDIFF:0
|
||
|
||
|
||
#START
|
||
|
||
|
||
#MEASURE 1/4
|
||
#BARLINEOFF
|
||
000000000000,
|
||
|
||
#GOGOSTART
|
||
#MEASURE 4/4
|
||
#BARLINEON
|
||
100000000000000000000000000000000000000000100000,
|
||
000000000000000000000000100000000000000000000000,
|
||
100000000000000000000000000000000000000000100000,
|
||
000000000000000000000000100000000000000000000000,
|
||
100000000000000000000000000000000000000000100000,
|
||
000000000000000000000000100000000000000000000000,
|
||
100000000000000000000000000000000000000000100000,
|
||
000000000000000000000000100000000000000000000000,
|
||
#GOGOEND
|
||
100000000000000000000000000000000000000000000000,
|
||
100000000000000000000000100000000000000000000000,
|
||
100000000000000000000000000000000000000000000000,
|
||
100000000000000000000000100000000000000000000000,
|
||
200000000000000000000000200000000000000000000000,
|
||
200000000000000000000000200000000000000000000000,
|
||
100000000000000000000000000000000000000000000000,
|
||
100000000000000000000000100000000000000000000000,
|
||
#GOGOSTART
|
||
100000000000000000000000000000000000000000100000,
|
||
000000000000000000000000100000000000000000000000,
|
||
100000000000000000000000000000000000000000100000,
|
||
000000000000000000000000100000000000000000000000,
|
||
#GOGOEND
|
||
100000000000000000000000000000000000000000000000,
|
||
100000000000000000000000100000000000000000000000,
|
||
100000000000000000000000000000000000000000000000,
|
||
100000000000000000000000100000000000000000000000,
|
||
200000000000000000000000200000000000000000000000,
|
||
200000000000000000000000200000000000000000000000,
|
||
100000000000000000000000000000000000000000000000,
|
||
100000000000000000000000100000000000000000000000,
|
||
100000000000000000000000000000000000000000000000,
|
||
100000000000000000000000000000000000000000000000,
|
||
200000000000000000000000000000000000000000000000,
|
||
200000000000000000000000000000000000000000000000,
|
||
100000000000000000000000000000000000000000000000,
|
||
100000000000000000000000100000000000100000000000,
|
||
700000000000000000000000000000000000800000000000,
|
||
300000000000300000000000300000000000000000000000,
|
||
400000000000400000000000400000000000000000000000,
|
||
300000000000300000000000300000000000000000000000,
|
||
#GOGOSTART
|
||
100000000000100000000000100000000000000000000000,
|
||
100000000000100000000000000000000000000000000000,
|
||
100000000000000000000000100000000000000000000000,
|
||
100000000000100000000000100000000000000000000000,
|
||
100000000000100000000000100000000000000000000000,
|
||
100000000000100000000000000000000000000000000000,
|
||
300000000000000000000000300000000000000000000000,
|
||
300000000000300000000000300000000000000000000000,
|
||
#GOGOEND
|
||
100000000000000000000000100000000000000000000000,
|
||
100000000000100000000000000000000000000000000000,
|
||
100000000000000000000000100000000000000000000000,
|
||
100000000000000000000000200000000000000000000000,
|
||
100000000000000000000000100000000000000000000000,
|
||
100000000000000000000000200000000000000000000000,
|
||
100000000000100000000000100000000000000000000000,
|
||
700000000000000000000000000000000000800000000000,
|
||
300000000000000000000000000000000000000000000000,
|
||
100000000000000000000000000000000000000000000000,
|
||
000000000000000000000000000000000000000000000000,
|
||
300000000000300000000000300000000000000000000000,
|
||
#GOGOSTART
|
||
100000000000100000000000100000000000000000000000,
|
||
200000000000200000000000000000000000000000000000,
|
||
300000000000000000000000300000000000000000000000,
|
||
300000000000000000000000300000000000000000000000,
|
||
100000000000100000000000100000000000000000000000,
|
||
100000000000100000000000000000000000000000000000,
|
||
100000000000000000000000100000000000000000000000,
|
||
100000000000100000000000100000000000000000000000,
|
||
100000000000100000000000100000000000000000000000,
|
||
100000000000100000000000000000000000000000000000,
|
||
300000000000000000000000300000000000000000000000,
|
||
300000000000300000000000300000000000000000000000,
|
||
300000000000300000000000300000000000000000000000,
|
||
300000000000300000000000300000000000400000000000,
|
||
#GOGOEND
|
||
|
||
|
||
#END
|
||
|