Files
TJA-by-song-no/tja/1067.tja
2026-03-07 15:37:31 +09:00

448 lines
21 KiB
Plaintext
Raw Blame History

This file contains ambiguous Unicode characters
This file contains Unicode characters that might be confused with other characters. If you think that this is intentional, you can safely ignore this warning. Use the Escape button to reveal them.
//TJADB Project
TITLE:Agent Hustle & Dr. Hassle
TITLEJA:Agent Hustle Dr. Hassle
SUBTITLE:--Cory Tarrow
SUBTITLEJA:Cory Tarrow(BNSI)
BPM:240
WAVE:Agent Hustle and Dr. Hassle.ogg
OFFSET:-1.239
DEMOSTART:59.239
COURSE:Edit
LEVEL:9
BALLOON:12,8
SCOREINIT:1930
SCOREDIFF:0
#START
#BARLINEOFF
#SCROLL 0.5
000000000000000000100100200000100000000000000000,
#BARLINEON
#MEASURE 8/4
300000000000000000200000200000000000000000200000200000000000000000100000200000000000100000100000,
000000000000000000200000200000000000000000200000200000000000100000000000200000100000000000000000,
100000000000000000200000200000000000000000200000200000000000000000100000200000000000200000100000,
000000000000000000200000200000000000200020002000200000000000100000000000200000100000000000000000,
100000000000000000200000200000000000000000200000200000000000000000200000200000000000100000200000,
000000200000000000200000200000000000100000200000200000000000100000200000200000100000100000000000,
100000000000000000200000200000000000000000200000200000000000000000200000200000000000200020002000,
200000100000000000100000000000100000000000200000000000400000000000000000000000000000000000000000,
100000000000000000100000200000000000100000100000000000000000000000100000100000000000000000200000,
200000000000200000000000200000000000000000200000200000000000000000100000200000000000000000000000,
100000000000000000100000200000000000100000100000000000000000000000100000200000000000000000200000,
200000000000000000200000000000000000200000000000000000000000200000000000200000100000000000000000,
100000000000100000000000200000000000100000100000000000100000200000100000000000000000100000000000,
200000100000000000100000100000000000200000100000000000200200200000100000000000200000100000000000,
100000000000100000000000200000000000100000200000200000000000100000200000200000100000000000200000,
000000100100100000100000100100100000100000100000500000000000000000000000000000000008000000000000,
100000200000200000000000200000200000100100100100100000200000100000100000200000100000000000200000,
100000200000200000000000100000200000200000100000000000200000100000100000200000100000000000100000,
100000200000200000000000200000200000100100100100100000200000100000100000200000100000000000200000,
100000200000200000000000100000200000200000100000000000200000000000200000000000200200200000200000,
100000000000000000000000200000000000000000200000200000000000000000000000200000000000000000200000,
200000000000000000000000200000000000000000200000200000000000200000000000200000000000000000100000,
100000000000000000000000200000000000000000200000200000000000000000000000200000000000000000200000,
200000000000200000000000200000200000000000200000000000200000000000200000100000000000000000000000,
100000200000200000000000200000200000100000200000000000200000100000100000200000100000000000200000,
100000200000200000000000200000200000100000200000000000200000100000200000200000100000000000100000,
100000200000200000000000200000200000100000200000000000200000100000100000200000100000000000200000,
#MEASURE 12/4
100000100000200000100000000000200000100000200200200000100000000000200000200000200000100000100000100000000000000000200200200000002000000020000000,
#GOGOSTART
#MEASURE 8/4
000000000000000000100000000000000000100000000000000000000000000000100000000000000000100000000000,
000000000000000000100000000000000000100000000000000000000000000000100000000000000000100000200000,
000000000000000000100000000000000000100000000000000000000000000000100000000000000000100000000000,
000000000000000000100000000000000000100000200000000000200200200000200000200200200000200000000000,
100000000000200000100000000000200000000000100000000000000000200000100000200000100000000000100000,
000000000000200000100000000000200000000000100000000000200000200000100000200000200000200000100000,
000000000000200000100000000000200000000000100000000000200000200000100000200000100000000000000000,
100020002000100000100000000000200200200200200200
#GOGOEND
100000000000000000000000200000000000000000000000,
100000000000000000000000100000000000000000000000100000000000000000000000000000000000000000000000,
200000000000000000000000200000000000000000000000200000000000000000000000000000000000000000000000,
101000000000000000000000101000000000000000000000101000000000000010000000000000001000000000000000,
202000000000000000000000202000000000000000000000202000000000000020000000000000002000000000000000,
100000000000100000000000100000000000000000200000000000100000000000000000200000000000000000100000,
000000000000200000000000002000100000000100000000200010000000001000100000000100000000200000200000,
100000000000100000000000100000000000000000200000000000000000000000200000000000000000200000000000,
000000000000200000000000200000000000000000000000200000000000000000200000000000000000200000100100,
200000000000000000100000000000000000100000000000000000100000100000100000200000200000000000100100,
200000000000000000100100200000000000000000100100200000002000000010000000000000002000000020000000,
100000000000200000100000000000000000300000000000000000000000000000000000000000200000200000200000,
000000000000000000000000202000000000202000000000100000000000000000000000000000000000000000000000,
100000000000000000100000000000000000700000000000000000000000000000000000000000000000800000000000,
101000000000000000000000202000000000000000000000100000000000000000000000400000000000000000000000,
100000000000000000100000000000000000200000000000000000700000000000000000000000000000800000000000,
202000000000000000000000202000000000000000000000100000000000100000000000200000100000000000000000,
#GOGOSTART
200000000000200000100000000000200000100000200000000000000000000000100000000000200000100000200000,
200000000000200000100000000000200000100000200000000000000000000000100000000000200000100000200000,
200000000000200000100000000000200000100000200000000000000000000000100000000000200000100000200000,
200000000000200000100000000000200000100000200000000000200200200000200000100100100000100000000000,
#GOGOEND
100000000000000000000000000000000000000000100100200000000000000000000000000000000000000000000000,
200000002000000020002000100000001000000020001000100000000000000000000000000000000000000000000000,
#END
COURSE:Oni
LEVEL:10
SCOREINIT:1450
SCOREDIFF:0
#START
#BARLINEOFF
#SCROLL 0.5
000000000000000000000000000000000000000000000000,
#BARLINEON
#MEASURE 8/4
300000000000000000200000200000000000000000000000100000000000100000000000202000000000000000100000,
000000000000000000200000200000000000000000100000100000200000100000000000200000100000200000000000,
100000000000000000100000200000000000000000000000100100100100000000000000200000000000000000100000,
000000000000000000200000200000000000000000000000100000000000200000200000100000000000000000000000,
100000000000000000100000200000000000000000100000100000200000100000000000200000200000100000100000,
000000000000200000100000100000000000000000000000100000000000200000000000100000200000000000000000,
100000000000200000000000100000100000200000100000200000200000200000000000200000200000100000002000,
200000100000000000100000000000200000000000200000000000400000000000000000000000000000000000000000,
100000000000000000100000200000000000300000000000000000000000100000000000200000000000000000200000,
100010001000100000200000000000100000200000200000100000000000200000200000100000000000100000200000,
100000000000000000100000200000000000300000000000000000000000200000000000100000000000200000000000,
100010001000100000200000000000200000100100200000100000100000200000200000100000200000200000200000,
100000000000100000000000300000000000200000200000100000100100100000200000100100100000200000100100,
200000200000100000100000200000100000200000100000200000200000100000200200200000100000000000000000,
100000000000100000000000300000000000200000100000200000200000200000000000100000200000000000200000,
100000000000200200100000200000200000100000100000200000100000200000100000200000200000100000000000,
100000000000200000000000100000200000100100100000200000000000100000200000100000000000200000000000,
100000200000100000100000200000100000000000200000000000200000100000100000200000100000000000000000,
100000000000200000000000100000200000100100100000200000000000100000200000100000000000200000000000,
100000200000100000100000200000100000000000200000000000200000000000200000000000200200200000200000,
100000100000000000200000000000100000200000000000100000000000000000200000000000200000000000100000,
100000100000000000200000000000200000100000000000200000000000000000000000202000000000000000000000,
100000100000000000200000000000100000200000000000100000000000000000200000000000200000100000000000,
100000100000000000200000000000200000100000000000200000200000100000200000100000200000000000200000,
100000000000200000000000100000200000000000200000100000100000200000000000100000000000200000200000,
100000100000200000200000100000000000200000100000100000000000200000200000100000200000200000200000,
100100100100100000100000200000000000200000200000100100100100100000100000200000100000200000200000,
#MEASURE 12/4
100000200200100100200000100000200200100200200200000200200000200020002000,
#GOGOSTART
#MEASURE 8/4
100000100000200000100000000000100000000000200000000000100000000000200000000000100000000000100000,
000000200000200000100000000000100000000000200000000000100000000000200000000000100000000000100000,
000000100000200000100000000000100000000000200000000000100000000020200000000000200000000000100000,
000000200000200000100000000000100000000000200000100100100000100000200200200000100000200200200000,
100000100000200000100000000000100000000000200000000000100000200000100000000000200000000000100000,
000000200000200000100000000000100000000000200000000000100000100000200000200000100000000000100000,
000000100000200000100000000000100000000000200000000000100000200000200000000000200000000000100000,
000000100000200000100000000000300000000000100100
#GOGOEND
200000001000000010000000202000001000000010000000,
200010001000100010001000200010001000100010001000200010001000100020001000100010002000100010001000,
200010001000100010001000200010001000100010001000200010001000100020001000100010002000100010001000,
200010001000200010001000200010001000200010001000200020001000100020002000100010002000200010001000,
200010001000200010001000200010001000200010001000200020001000100020002000100010002000200010001000,
100000000000100000000000300000000000100000200000000000000000000000000000000000000000000000000000,
200000000000000000000000200000000000000000000000200000000000200000000000200000000000000000000000,
100000000000100000000000300000000000100000200000000000100000100000200000000000100000000000100000,
200020002000100010001000200010001000200010001000200200200200100100100100200100100100200100100100,
100000000000000000100000000000000000300000000000200000200000000000100100200000200000000000000000,
200000002000000020000000100000002000000020000000200000001000000020000000100000002000000020000000,
100000000000000000100000000000200000100000000000000000200000200000200000000000100000100000100000,
200200000000100200000000100100000000200100000000200200000000000020020000000000002002000000000000,
100000000000000000100000000000000000100000000000000000000000000000000000200000100000000000100000,
100000000000000000000000000000000000000002000000100000000000000000000000200000000000000000000000,
100000000000000000100000000000000000100000000000000000100000000000000000200000000000000000000000,
600000000000000000000000000000000008000000000000400000000000400000000000100000200000000000000000,
#GOGOSTART
100000100000000000100000000000100000000000200000100000100000100000200000000000000000000000000000,
100000100000000000100000000000100000000000200000200000100000100000200000000000100000000000000000,
100000100000000000100000000000100000100000200000100000100100100000200000200000100000000000200000,
100000100100100000200000100000100100100000200000100000200100100000200000100000200100100000200000,
#GOGOEND
100000000000200000100000100000100000100000000000300000000000200000200000100000100000100000000000,
400000000000000000000000100001000100100100101010100000000000000000000000000000000000000000000000,
#END
COURSE:Hard
LEVEL:6
BALLOON:15,5
SCOREDIFF:0
#START
#BARLINEOFF
,
#BARLINEON
#MEASURE 8/4
100000000000000000000000200000200000200000000100,
000000000000000000000000200200200000200200200000,
100000000000200000000000100000000000200000000100,
000000000000000000000000200000200200200000000000,
100000000000000000000000200200200000200000000100,
000000100100100000000000100000100100100000000000,
100000100000100100100000200200200000200200200000,
000100000100000100000100000300000000000000000000,
100000000100000000100000000000200000200000000000,
200000000200000000200000200000200200200000000000,
100000000100000000100000200000200000200000000000,
200000000200000000200000200000200200200000000000,
100000100000100000200000000200000200000000200000,
200000200000200000000000200200200200000200000000,
100000100000100000000000200200200000200200000000,
700000000000000000000000000000000000800000000000,
100000100000100100000000100000100100000000000000,
200000200200200000000200000200000200200200000000,
100000100000100100000000100000100100000000000000,
200000200200200000000200000200000200000000000000,
100100000100000100100000000000000000200000000000,
200000200200200000200000200000000000200000000000,
100100000100000100100000200000000000200000000000,
200000200000200000000000200200000200000000000000,
100000200000100000200000100100100000000000200000,
100000200000100000200000200200200000000000200000,
100000200000100000200000100100100000000000200000,
#MEASURE 12/4
100000200000100000200000200200200000000000200000700000000000000000800000,
#GOGOSTART
#MEASURE 8/4
100000100100000100000200000100000200000000000100,
000100100100000100000200000100000200000000000100,
000100100100000100000200000100000200000200000100,
000000000200000200000200000100100100000100000000,
100000100100000100000200000100000200000000000100,
000100100100000100000200000100000200000000000100,
000100100100000100000200000100000200000000000100,
000100100100000300000000
#GOGOEND
000000000000000000000000,
100000100000100000100000100000001000000010000000,
100000100000100000100000100000001000000010000000,
100000100000100000100000100000001000000010000000,
100000100000100000100000100000001000000010000000,
100000100000100000000200000000000000000000000000,
200000000000200000000000200000200000200000000000,
100000100000100000000200000200200200000000000000,
500000000000000000000000000000000008000000000000,
100000000100000000100000200200000000000000000000,
200020002000000020002000200000002000000020000000,
100000000100000000100000000200200200000000000000,
200000200000200000200000400000000000000000000000,
100000000100000000100000000000000000200000000000,
000000000000000000200200200000000000200000000000,
100000000100000000100000000100000000200000000000,
600000000000000008000000400000400000000400000000,
#GOGOSTART
100100000100000100000200000100000200000000000000,
100100000100000100000200000100000200000000000000,
100100000100000100000200000100000200000000000000,
100100000100000100000200000100000200000000000000,
#GOGOEND
300000100100100100100000300000100100100100100000,
400000000000000000000000100000000000000000000000,
#END
COURSE:Normal
LEVEL:5
BALLOON:6,9,7
SCOREDIFF:0
#START
#BARLINEOFF
,
#BARLINEON
#MEASURE 8/4
100000000000000000000000200000000000200000000100,
000000000000000000000000200000000000200000000000,
100000000000100000000000100000000000100000000100,
000000000000000000000000000000000000200000000000,
100000000000000000000000200000000000200000000100,
000000000000100000000000100000000000200000000000,
100000000000100000000000200000000000200000200000,
000700000000000000000000000800000000000000000000,
100000000100000000100000000000000000000000000000,
200000000000000000000000200000000000200000000000,
100000000100000000100000000000000000000000000000,
200000000000000000000000200000000000200000000000,
100000100000100000200000000200000200000000000000,
200000200000200000000000200000000200000000000000,
100000100000100000000000200000200000200000000000,
700000000000000000000000000000000000800000000000,
100000100000100000000000100000000100000000000000,
200000200000200000000200000000000000000000000000,
100000100000100000000000100000000100000000000000,
200000200000200000000200000200000200000000000000,
100000000100000000100000000000000000000000000000,
000000000000000000000000200000000000200000000000,
100000000100000000100000000000000000000000000000,
000000000000000000000000200000000200000000000000,
100000000000100000000000100000200000000000200000,
100000000000100000000000200000200000000000200000,
100000000000100000000000100000200000000000200000,
#MEASURE 12/4
100000000000100000000000200000200000000000200000000000000000000000000000,
#GOGOSTART
#MEASURE 8/4
100000000100000100000200000000000200000000000100,
000000000100000100000200000000000200000000000100,
000000000100000100000200000000000200000200000100,
000000000200000200000200000000000200000000000000,
100000000100000100000200000000000200000000000100,
000000000100000100000200000000000200000000000100,
000000000100000100000200000000000200000000000300,
000000000300000300000000
#GOGOEND
000000000000000000000000,
100000000000100000000000100000001000000010000000,
100000000000100000000000100000001000000010000000,
100000000000100000000000100000001000000010000000,
100000000000100000000000100000001000000010000000,
100000100000100000000000000000000000000000000000,
200000000000200000000000200000200000200000000000,
100000100000100000000200000000000200000000000000,
500000000000000000000000000000000008000000000000,
100000000100000000100000000000000000000000000000,
200020002000000020002000200000000000000000000000,
100000000100000000100000000200000200000000000000,
200000200000200000000000400000000000000000000000,
100000000100000000700000000000000000000000000000,
800000000000000000000000200000000000200000000000,
100000000100000000100000000100000000000000000000,
600000000000000008000000400000400000000000000000,
#GOGOSTART
100000000100000100000200000000000200000000000000,
100000000100000100000200000000000200000000000000,
100000000100000100000200000000000200000000000000,
100000000100000100000200000000000200000000000000,
#GOGOEND
300000000000100000000000400000000000100000000000,
400000000000000000000000100000000000000000000000,
#END
COURSE:Easy
LEVEL:4
BALLOON:5,7,6
SCOREDIFF:0
#START
#BARLINEOFF
,
#BARLINEON
#MEASURE 8/4
100000000000000000000000000000000000000000000100,
000000000000000000000000000000000000000000000000,
100000000000100000000000100000000000000000000100,
000000000000000000000000000000000000000000000000,
100000000000000000000000200000000000000000000100,
000000000000000000000000000000000000000000000000,
100000000000000000000000200000000000000000000000,
000700000000000000000000000800000000000000000000,
100000000100000000100000000000000000000000000000,
200000000000000000000000200000000000000000000000,
100000000100000000100000000000000000000000000000,
200000000000000000000000200000000000000000000000,
100000000000100000000000000000000000000000000000,
200000000000200000000000200000000000000000000000,
100000000000100000000000000000000000000000000000,
700000000000000000000000000000000000800000000000,
100000000000100000000000100000000000000000000000,
200000000000000000000000000000000000000000000000,
100000000000100000000000100000000000000000000000,
200000000000000000000000000000000000000000000000,
100000000100000000100000000000000000000000000000,
000000000000000000000000200000000000000000000000,
100000000100000000100000000000000000000000000000,
000000000000000000000000200000000000000000000000,
100000000000100000000000100000000000000000000000,
100000000000100000000000200000000000000000000000,
100000000000100000000000100000000000000000000000,
#MEASURE 12/4
100000000000100000000000200000000000000000000000000000000000000000000000,
#GOGOSTART
#MEASURE 8/4
100000000100000000000200000000000000000000000100,
000000000100000000000200000000000000000000000100,
000000000100000000000200000000000000000000000200,
000000000200000000000200000000000000000000000000,
100000000100000000000200000000000000000000000100,
000000000100000000000200000000000000000000000100,
000000000100000000000200000000000000000000000300,
000000000300000300000000
#GOGOEND
000000000000000000000000,
100000000000000000000000100000001000000010000000,
100000000000000000000000100000001000000010000000,
100000000000000000000000100000001000000010000000,
100000000000000000000000100000001000000010000000,
100000000000100000000000000000000000000000000000,
200000000000200000000000200000000000000000000000,
100000000000100000000000000000000000000000000000,
500000000000000000000000000000000008000000000000,
100000000100000000100000000000000000000000000000,
200000002000000020000000200000000000000000000000,
100000000100000000100000000000000000000000000000,
200000000000200000000000400000000000000000000000,
100000000100000000700000000000000000000000000000,
800000000000000000000000200000000000200000000000,
100000000100000000100000000100000000000000000000,
200000000000000000000000400000000000000000000000,
#GOGOSTART
100000000100000000000200000000000000000000000000,
100000000100000000000200000000000000000000000000,
100000000100000000000200000000000000000000000000,
100000000100000000000200000000000000000000000000,
#GOGOEND
300000000000000000000000300000000000000000000000,
400000000000000000000000100000000000000000000000,
#END