Files
TJA-by-song-no/tja/115.tja
2026-03-07 15:37:31 +09:00

314 lines
3.1 KiB
Plaintext

//TJADB Project
TITLE:Dragon Ball Heroes Galaxy Mission Series Theme Song
TITLEJA:ドラゴンボールヒーローズ
SUBTITLE:--Dragon Soul/Dragon Ball Heroes
SUBTITLEJA:ギャラクシーミッションシリーズ テーマソング
BPM:159.17
WAVE:Dragon Ball Heroes Galaxy Mission Series Theme Song.ogg
OFFSET:-1.788
DEMOSTART:59.909
COURSE:Oni
LEVEL:6
BALLOON:9
SCOREINIT:760
SCOREDIFF:223
#START
111222,
#BPMCHANGE 161.18
111222,
#BPMCHANGE 159.4
100111100222,
#BPMCHANGE 165.95
#SCROLL 0.96
2000000000111000,
#BPMCHANGE 165
#SCROLL 1
3,
00000123,
3,
70008003,
3,
21111121,
10211121,
0010101000111110,
00201120,
11211120,
10201120,
11211120,
30430430,
4030004030002220,
30430430,
4030004030001111,
10201120,
11211120,
10201120,
11211120,
30430430,
4030004030002220,
30430430,
4030004030001111,
11012020,
1010001020101011,
11012020,
11012000,
11012020,
1020001020101011,
11012020,
100200000100202020101010,
10101210,
10101210,
21111121,
0010101000111110,//40
#GOGOSTART
0010201110102010,
0010201110102010,
0010201110102010,
0010201120002010,
0010201110102010,
02120121,
02120125,
0000000800000010,
0010201110102010,
0010201110102010,
0010201110102010,
0010201120002010,
0010201110102010,
02120121,
10010010,
2010101010102220,
3333,
3034,
600000000000000000000008,
#GOGOEND
#END
COURSE:Hard
LEVEL:4
BALLOON:8,10,10
//226combo
#START
111100,
111100,
5,
0000000800111000,
#BPMCHANGE 165
3,
00000123,
3,
70000803,
3,
21111121,
90000908,
,
1212,
11101110,
1212,
11101110,
30430430,
43043040,
30430430,
4030004030001110,
1212,
11101110,
1212,
11101110,
30430430,
43043040,
30430430,
4030004030001110,
11012020,
11012010,
11012020,
11012000,
10012020,
12012020,
10012020,
12012020,
10101110,
10102220,
9000000000900008,
00000001,
#GOGOSTART
01101013,
03303035,
0000000800000010,
01102021,
01000111,
02220111,
02220115,
0000000800000010,
01101013,
03303035,
0000000800000010,
01102021,
01000111,
02220111,
10010010,
0110,
3333,
3034,
600000000000000000000008,
#GOGOEND
,
,
,
,
#END
COURSE:Normal
LEVEL:3
BALLOON:6,8,8
//125combo
#START
12,
12,
5,
0000000000080000,
#BPMCHANGE 165
3,
0004,
3,
70000800,
3,
10010010,
90000908,
,
11,
1110,
11,
1110,
30030040,
04003000,
30030040,
04003000,
11,
1110,
11,
1110,
30030040,
04003000,
30030040,
04003000,
11002000,
10011000,
11002000,
10011000,
1022,
12,
1022,
12,
1111,
2222,
9000000000900008,
00000001,
#GOGOSTART
00101003,
00303005,
0000000800000010,
0110,
1110,
2220,
10101005,
0000000800000010,
00101003,
00303005,
0000000800000010,
0110,
1110,
2220,
10010010,
0110,
3333,
33,
600000000000000000000008,
#GOGOEND
,
,
,
,
#END
COURSE:Easy
LEVEL:3
BALLOON:3,5,5
//113combo
#START
12,
12,
5,
0000000000080000,
#BPMCHANGE 165
3,
,
3,
70000800,
3,
10010010,
90000908,
,
11,
1110,
11,
1110,
30030030,
03003000,
30030030,
03003000,
11,
1110,
11,
1110,
30030030,
03003000,
30030030,
03003000,
12,
11,
12,
11,
1011,
11,
1011,
11,
1110,
1110,
9000000000900008,
00000001,
#GOGOSTART
00101003,
00303005,
0000000800000010,
0110,
11,
22,
10001005,
0000000800000010,
00101003,
00303005,
0000000800000010,
0110,
11,
22,
10010010,
0110,
3333,
33,
600000000000000000000008,
#GOGOEND
,
,
,
,
#END